Loading...
Error
 

Скачать торрент Сектор Газа - Москва, ДК Орион [1997 г, Punk-rock, VHSRip]

 
Автор Сообщение

Alcort

post 03-Май-14 12:18

pic
Сектор Газа - Концерт в Москве, ДК Орион (19.06.1997)

Год выпуска: 1997
Страна: Россия
Жанр: Punk-rock
Продолжительность: 0:51:50
Описание: Концерт проходил в Москве 19 июня 1997 года в ДК Орион. Видео начинается с небольшой репетиции. Большинство песен снято не полностью. После выступления Василий Черных и Александр Якушев дали краткое интервью.
Трэклист:
01. Опять сегодня
02. Песенка
03. Пора домой
04. Марш наркоманов (колумбийская народная)
05. Новогодняя песня
06. Туман
07. 30 лет
08. Сельский кайф
09. Бомж
10. Взял вину на себя
11. Ночь перед Рождеством
12. Вальпургиева ночь
13. Тёща
14. Гуляй, мужик!
15. Давай-давай!
16. Здравствуйте, детишки
17. Ява
18. Возле дома твоего
19. Гаи (водительская-подхалимская)
20. Не даёт
21. Вдова
22. Из чего же
23. Кума
24. Лирика
25. Попец
Качество:VHSRip
Формат:AVI
Видео кодек:Xvid
Аудио кодек: MP3
Видео: 576x432, 25 fps, ~1688 kbps, 0,271 bit/pixel, 4:3
Аудио: MP3 / 2.0 / 48 kHz / 16-bit / 192 Kbps
Сэмпл
pic
MediaInfo
Complete name : Сектор газа (Москва 1997).avi
Format : AVI
Format/Info : Audio Video Interleave
File size : 701 MiB
Duration : 51mn 49s
Overall bit rate : 1 890 Kbps
Writing application : VirtualDubMod 1.5.10.2 (build 2540/release)
Writing library : VirtualDubMod build 2540/release

Video
ID : 0
Format : MPEG-4 Visual
Format profile : Advanced [email protected]
Format settings, BVOP : 1
Format settings, QPel : No
Format settings, GMC : No warppoints
Format settings, Matrix : Default (MPEG)
Codec ID : XVID
Codec ID/Hint : XviD
Duration : 51mn 49s
Bit rate : 1 688 Kbps
Width : 576 pixels
Height : 432 pixels
Display aspect ratio : 4:3
Frame rate : 25.000 fps
Color space : YUV
Chroma subsampling : 4:2:0
Bit depth : 8 bits
Scan type : Progressive
Compression mode : Lossy
Bits/(Pixel*Frame) : 0.271
Stream size : 626 MiB (89%)
Writing library : XviD 64

Audio
ID : 1
Format : MPEG Audio
Format version : Version 1
Format profile : Layer 3
Codec ID : 55
Codec ID/Hint : MP3
Duration : 51mn 49s
Bit rate mode : Constant
Bit rate : 192 Kbps
Channel(s) : 2 channels
Sampling rate : 48.0 KHz
Compression mode : Lossy
Stream size : 71.2 MiB (10%)
Alignment : Aligned on interleaves
Interleave, duration : 40 ms (1.00 video frame)
Interleave, preload duration : 504 ms
Writing library : LAME3.99r
Encoding settings : -m s -V 4 -q 3 -lowpass 18.6 -b 192
Скриншоты
Сектор газа (Москва 1997).avi.torrent
 ЗОЛОТАЯ РАЗДАЧА! СКАЧАННОЕ НЕ ЗАСЧИТЫВАЕТСЯ! 
Вечный
Трекер: Зарегистрирован

magnet ссылка

 


Скачать .torrent

14 KB

Статус: проверено (by BOOT в 03-Май-14 14:04)
Зарегистрирован: 03-Май-14 12:18
Скачан: 40 раз
Размер: 701 MB | 
Поблагодарили:
Скачать Сектор Газа - Москва, ДК Орион [1997 г, Punk-rock, VHSRip] торрент
 


Похожие раздачи

Текущее время: 28-Мар 23:34

Часовой пояс: GMT + 3



Вы не можете начинать темы
Вы не можете отвечать на сообщения
Вы не можете редактировать свои сообщения
Вы не можете удалять свои сообщения
Вы не можете голосовать в опросах
Вы не можете прикреплять файлы к сообщениям
Вы не можете скачивать файлы