Loading...
Error
 
Мини-чат
 

Скачать торрент Путешествие по Америке с Джейми Оливером / Jamie's American Road Trip (Джейми Оливер)[2009, Кулинарное шоу, SATRip ]

 
Автор Сообщение

STRELOK

post 02-Дек-12 01:38

pic
Путешествие по Америке с Джейми Оливером / Jamie's American Road Trip

Год выпуска: 2009
Страна: Великобритания
Сайт производителя: отсутствует
Тематика: Кулинарное шоу
Тип материала: Видеоуроки

Продолжительность: 6 х 00:47:00
Автор: Джейми Оливер

Язык: Русский (Профессиональный (одноголосый, закадровый))
Субтитры: отсутствуют
Описание: Джейми Оливер отправляется в новое гастрономическое путешествие. На этот раз по США. В течение нескольких месяцев он будет ездить по городам и поселкам Америки и разыскивать сокровища местной кухни. Общаясь с фермерами, поварами и продавцами на рынках, Джейми раскроет тайны приготовления американских блюд.
Качество: SATRip
Формат: AVI
Видео кодек: XviD
Аудио кодек: MP3
Видео: 720x416 (1.73:1), 25 fps, XviD build 50 ~1342 kbps avg, 0.18 bit/pixel
Аудио: 48 kHz, MPEG Layer 3, 2 ch, ~128.00 kbps avg
MediaInfo

Код:

Общее
Полное имя                               : D:\обуч\jamies_american_road_trip\jamies_american_road_trip_1.avi
Формат                                   : AVI
Формат/Информация                        : Audio Video Interleave
Размер файла                             : 500 Мбайт
Продолжительность                        : 47 м.
Общий поток                              : 1477 Кбит/сек
Программа кодирования                    : VirtualDubMod 1.5.4.1 (build 2178/release)
Библиотека кодирования                   : VirtualDubMod build 2178/release

Видео
Идентификатор                            : 0
Формат                                   : MPEG-4 Visual
Профиль формата                          : Advanced [email protected]
Параметр BVOP формата                    : 1
Параметр QPel формата                    : Нет
Параметр GMC формата                     : Без точки перехода
Параметр матрицы формата                 : Выборочная
Идентификатор кодека                     : XVID
Идентификатор кодека/Подсказка           : XviD
Продолжительность                        : 47 м.
Битрейт                                  : 1342 Кбит/сек
Ширина                                   : 720 пикселей
Высота                                   : 416 пикселей
Соотношение сторон                       : 1,731
Частота кадров                           : 25,000 кадров/сек
Цветовое пространство                    : YUV
Субдискретизация насыщенности            : 4:2:0
Битовая глубина                          : 8 бит
Тип развёртки                            : Прогрессивная
Метод сжатия                             : С потерями
Бит/(Пиксели*Кадры)                      : 0.179
Размер потока                            : 454 Мбайт (91%)
Библиотека кодирования                   : XviD 1.2.1 (UTC 2008-12-04)

Аудио
Идентификатор                            : 1
Формат                                   : MPEG Audio
Версия формата                           : Version 1
Профиль формата                          : Layer 3
Режим                                    : Joint stereo
Расширение режима                        : MS Stereo
Идентификатор кодека                     : 55
Идентификатор кодека/Подсказка           : MP3
Продолжительность                        : 47 м.
Вид битрейта                             : Постоянный
Битрейт                                  : 128 Кбит/сек
Каналы                                   : 2 канала
Частота                                  : 48,0 КГц
Метод сжатия                             : С потерями
Размер потока                            : 43,3 Мбайт (9%)
Выравнивание                             : Соединение по промежуткам
Продолжительность промежутка             : 80  мс. (2,00 видеокадра)
Время предзагрузки промежутка            : 504  мс.
Библиотека кодирования                   : LAME3.98r
Настройки программы                      : -m j -V 4 -q 2 -lowpass 17 -b 128

Скриншоты
pic pic pic pic pic pic pic pic

pic
jamies_american_road_trip.torrent
Трекер: Зарегистрирован

magnet ссылка

 


Скачать .torrent

16 KB

Статус: проверено (by CrazySpb в 02-Дек-12 15:17)
Зарегистрирован: 02-Дек-12 01:38
Скачан: 7 раз
Размер: 2.93 GB | 
Поблагодарили:
Скачать Путешествие по Америке с Джейми Оливером / Jamie's American Road Trip (Джейми Оливер)[2009, Кулинарное шоу, SATRip ] торрент
 


Похожие раздачи

post 21-Янв-14 15:10 (спустя 1 год 1 месяц)

Топик был перенесен из форума Обучающие видеокурсы и уроки в форум Кулинария

Причина переноса: Правильный раздел
Music Listener
 

Текущее время: 11-Июл 05:27

Часовой пояс: GMT + 3



Вы не можете начинать темы
Вы не можете отвечать на сообщения
Вы не можете редактировать свои сообщения
Вы не можете удалять свои сообщения
Вы не можете голосовать в опросах
Вы не можете прикреплять файлы к сообщениям
Вы не можете скачивать файлы