Loading...
Error
 
Мини-чат
 

Скачать торрент (Alternative, Cyberpunk, Synthwave, Retro) Aviators - The Cinematic Future: The Instrumentals - 2020, [TR24] [OF] [FLAC, tracks, lossless]



 
Автор Сообщение

Myster_Ya

post 21-Ноя-20 18:18

pic
Aviators - The Cinematic Future: The Instrumentals

Формат записи/Источник записи: [TR24][OF]
Наличие водяных знаков: Нет
Год издания/переиздания диска: 2020
Жанр: Alternative, Cyberpunk, Synthwave, Retro
Издатель (лейбл): Aviators
Продолжительность: 02:35:54
Наличие сканов в содержимом раздачи: Нет
Источник (релизер): bandcamp [name your price]
Контейнер: FLAC (*.flac)
Тип рипа: tracks
Разрядность: 24/44.1
Формат: PCM
Количество каналов: 2.0
Треклист
01. Aviators - Cities in the Distance (Instrumental) [7:07]
02. Aviators - Dark Star (Instrumental) [5:36]
03. Aviators - Glow (Instrumental) [5:28]
04. Aviators - Ghosts of our Fathers (Instrumental) [5:56]
05. Aviators - Gunning for a Promotion (Instrumental) [5:24]
06. Aviators - Slasher (Instrumental) [4:28]
07. Aviators - The Cinematic Future (Instrumental) [6:51]
08. Aviators - Codebreaker (Instrumental) [5:34]
09. Aviators - Drive Away (Instrumental) [6:02]
10. Aviators - Sainthood and Sanctuary (Instrumental) [5:35]
11. Aviators - Disconnected (Instrumental) [6:55]
12. Aviators - The Man in the Chair (Instrumental) [6:53]
13. Aviators - The Bells (Instrumental) [6:08]
14. Aviators - Cities in the Distance (Vocal Stem) [92 BPM] [7:07]
15. Aviators - Dark Star (Vocal Stem) [148 BPM] [5:36]
16. Aviators - Glow (Vocal Stem) [117 BPM] [5:28]
17. Aviators - Ghosts of our Fathers (Vocal Stem) [127 BPM] [5:56]
18. Aviators - Gunning for a Promotion (Vocal Stem) [153 BPM] [5:24]
19. Aviators - Slasher (Vocal Stem) [133 BPM] [4:28]
20. Aviators - The Cinematic Future (Vocal Stem) [174 BPM] [6:51]
21. Aviators - Codebreaker (Vocal Stem) [186 BPM] [5:34]
22. Aviators - Drive Away (Vocal Stem) [150 BPM] [6:02]
23. Aviators - Sainthood and Sanctuary (Vocal Stem) [171 BPM] [5:35]
24. Aviators - Disconnected (Vocal Stem) [160 BPM] [6:55]
25. Aviators - The Man in the Chair (Vocal Stem) [153 BPM] [6:53]
26. Aviators - The Bells (Vocal Stem) [145 BPM] [6:08]
Лог проверки качества

Код:

foobar2000 1.5.5 / Замер динамического диапазона (DR) 1.1.1
Дата отчёта:  2020-11-21 15:30:37

--------------------------------------------------------------------------------
Анализ:   Aviators / The Cinematic Future: The Instrumentals
--------------------------------------------------------------------------------

DR         Пики         RMS           Продолжительность трека
--------------------------------------------------------------------------------
DR3       -0.10 дБ    -4.20 дБ      7:07 01-Cities in the Distance (Instrumental)
DR3       -0.10 дБ    -4.93 дБ      5:36 02-Dark Star (Instrumental)
DR4       -0.10 дБ    -4.81 дБ      5:28 03-Glow (Instrumental)
DR5       -0.13 дБ    -5.54 дБ      5:56 04-Ghosts of our Fathers (Instrumental)
DR4       -0.10 дБ    -5.19 дБ      5:24 05-Gunning for a Promotion (Instrumental)
DR4       -0.10 дБ    -5.32 дБ      4:28 06-Slasher (Instrumental)
DR3       -0.10 дБ    -4.86 дБ      6:51 07-The Cinematic Future (Instrumental)
DR5       -0.10 дБ    -5.76 дБ      5:34 08-Codebreaker (Instrumental)
DR4       -0.10 дБ    -4.92 дБ      6:02 09-Drive Away (Instrumental)
DR6       -0.10 дБ    -7.32 дБ      5:35 10-Sainthood and Sanctuary (Instrumental)
DR4       -0.10 дБ    -5.90 дБ      6:55 11-Disconnected (Instrumental)
DR3       -0.10 дБ    -4.16 дБ      6:53 12-The Man in the Chair (Instrumental)
DR5       -0.10 дБ    -7.07 дБ      6:08 13-The Bells (Instrumental)
DR12      -3.79 дБ   -19.72 дБ      7:07 14-Cities in the Distance (Vocal Stem) [92 BPM]
DR13      -0.65 дБ   -18.51 дБ      5:36 15-Dark Star (Vocal Stem) [148 BPM]
DR13      -1.87 дБ   -19.24 дБ      5:28 16-Glow (Vocal Stem) [117 BPM]
DR12      -5.61 дБ   -21.02 дБ      5:56 17-Ghosts of our Fathers (Vocal Stem) [127 BPM]
DR13      -0.22 дБ   -18.06 дБ      5:24 18-Gunning for a Promotion (Vocal Stem) [153 BPM]
DR11      -4.74 дБ   -20.05 дБ      4:28 19-Slasher (Vocal Stem) [133 BPM]
DR13      -2.12 дБ   -18.62 дБ      6:51 20-The Cinematic Future (Vocal Stem) [174 BPM]
DR13      -2.24 дБ   -18.59 дБ      5:34 21-Codebreaker (Vocal Stem) [186 BPM]
DR13      -2.28 дБ   -19.02 дБ      6:02 22-Drive Away (Vocal Stem) [150 BPM]
DR12      -4.04 дБ   -19.22 дБ      5:35 23-Sainthood and Sanctuary (Vocal Stem) [171 BPM]
DR13      -3.70 дБ   -19.97 дБ      6:55 24-Disconnected (Vocal Stem) [160 BPM]
DR13      -3.60 дБ   -21.05 дБ      6:53 25-The Man in the Chair (Vocal Stem) [153 BPM]
DR15      -4.39 дБ   -24.75 дБ      6:08 26-The Bells (Vocal Stem) [145 BPM]
--------------------------------------------------------------------------------

Количество треков: 26
Реальные значения DR: DR8

Частота:   44100 Гц
Каналов:   2
Разрядность:   24
Битрейт:   1132 кбит/с
Кодек:   FLAC
================================================================================

Aviators - 2020 - The Cinematic Future - The Instrumentals (24-44.1).torrent
Трекер: Зарегистрирован

magnet ссылка

 


Скачать .torrent

17 KB

Статус: проверено (by E IL o T IR i X в 21-Ноя-20 18:20)
Зарегистрирован: 21-Ноя-20 18:18
Скачан: 23 раза
Размер: 1.44 GB | 
Поблагодарили:
Скачать (Alternative, Cyberpunk, Synthwave, Retro) Aviators - The Cinematic Future: The Instrumentals - 2020, [TR24] [OF] [FLAC, tracks, lossless] торрент
 


Похожие раздачи

Текущее время: 03-Дек 16:31

Часовой пояс: GMT + 3



Вы не можете начинать темы
Вы не можете отвечать на сообщения
Вы не можете редактировать свои сообщения
Вы не можете удалять свои сообщения
Вы не можете голосовать в опросах
Вы не можете прикреплять файлы к сообщениям
Вы не можете скачивать файлы