Loading...
Error
 

Скачать торрент (Electronic, Indie, Trip-Hop) Phantogram - Voices - 2014, FLAC (tracks+.cue), lossless

 
Автор Сообщение

mightyone

post 24-Фев-14 12:47

pic
Phantogram - Voices


Год выпуска: 2014
Жанр: Electronic, Indie, Trip-Hop
Продолжительность: 00:43:51
Тип рипа: tracks+.cue
Аудиокодек: FLAC (*.flac)
Битрейт аудио: lossless
Треклист:
01. Nothing But Trouble
02. Black Out Days
03. Fall In Love
04. Never Going Home
05. The Day You Died
06. Howling At The Moon
07. Bad Dreams
08. Bill Murray
09. I Don’t Blame You
10. Celebrating Nothing
11. My Only Friend
Лог создания рипа
X Lossless Decoder version 20131102 (145.0)

XLD extraction logfile from 2014-02-19 22:23:27 -0500

Phantogram - Voices

Used drive : ASUS SBC-06D1S-U (revision A301)
Media type : Pressed CD

Ripper mode : XLD Secure Ripper
Disable audio cache : OK for the drive with a cache less than 1375KiB
Make use of C2 pointers : NO
Read offset correction : 102
Max retry count : 100
Gap status : Analyzed, Appended (except HTOA)

TOC of the extracted CD
Track | Start | Length | Start sector | End sector
---------------------------------------------------------
1 | 00:00:00 | 04:05:52 | 0 | 18426
2 | 04:05:52 | 03:47:12 | 18427 | 35463
3 | 07:52:64 | 03:44:19 | 35464 | 52282
4 | 11:37:08 | 04:35:57 | 52283 | 72964
5 | 16:12:65 | 03:51:05 | 72965 | 90294
6 | 20:03:70 | 03:58:14 | 90295 | 108158
7 | 24:02:09 | 04:20:01 | 108159 | 127659
8 | 28:22:10 | 03:35:73 | 127660 | 143857
9 | 31:58:08 | 03:29:30 | 143858 | 159562
10 | 35:27:38 | 03:47:72 | 159563 | 176659
11 | 39:15:35 | 04:36:31 | 176660 | 197390

AccurateRip Summary
Disc not found in AccurateRip DB.

All Tracks
Album gain : -10.73 dB
Peak : 1.000000
Statistics
Read error : 0
Jitter error (maybe fixed) : 0
Retry sector count : 0
Damaged sector count : 0

Track 01
Filename : /Volumes/FreeAgent GoFlex Drive/Music/FLAC/Phantogram - Voices/01 - Nothing But Trouble.flac
Pre-gap length : 00:02:00

Track gain : -9.73 dB
Peak : 1.000000
CRC32 hash (test run) : 528A2E5A
CRC32 hash : 528A2E5A
CRC32 hash (skip zero) : 0260F511
AccurateRip v1 signature : EA9A38AC
AccurateRip v2 signature : FEF93870
->Track not present in AccurateRip database.
Statistics
Read error : 0
Jitter error (maybe fixed) : 0
Retry sector count : 0
Damaged sector count : 0

Track 02
Filename : /Volumes/FreeAgent GoFlex Drive/Music/FLAC/Phantogram - Voices/02 - Black Out Days.flac
Pre-gap length : 00:00:48

Track gain : -10.12 dB
Peak : 1.000000
CRC32 hash (test run) : 912F1478
CRC32 hash : 912F1478
CRC32 hash (skip zero) : D0111FC3
AccurateRip v1 signature : 409D3F96
AccurateRip v2 signature : 4EE7629A
->Track not present in AccurateRip database.
Statistics
Read error : 0
Jitter error (maybe fixed) : 0
Retry sector count : 0
Damaged sector count : 0

Track 03
Filename : /Volumes/FreeAgent GoFlex Drive/Music/FLAC/Phantogram - Voices/03 - Fall In Love.flac

Track gain : -11.75 dB
Peak : 1.000000
CRC32 hash (test run) : 54872650
CRC32 hash : 54872650
CRC32 hash (skip zero) : 08387396
AccurateRip v1 signature : 8C83F9D2
AccurateRip v2 signature : A5EC8501
->Track not present in AccurateRip database.
Statistics
Read error : 0
Jitter error (maybe fixed) : 0
Retry sector count : 0
Damaged sector count : 0

Track 04
Filename : /Volumes/FreeAgent GoFlex Drive/Music/FLAC/Phantogram - Voices/04 - Never Going Home.flac
Pre-gap length : 00:01:02

Track gain : -10.70 dB
Peak : 1.000000
CRC32 hash (test run) : 4048EEB1
CRC32 hash : 4048EEB1
CRC32 hash (skip zero) : 253B294C
AccurateRip v1 signature : EB828DB7
AccurateRip v2 signature : 37FE11A1
->Track not present in AccurateRip database.
Statistics
Read error : 0
Jitter error (maybe fixed) : 0
Retry sector count : 0
Damaged sector count : 0

Track 05
Filename : /Volumes/FreeAgent GoFlex Drive/Music/FLAC/Phantogram - Voices/05 - The Day You Died.flac
Pre-gap length : 00:01:40

Track gain : -11.30 dB
Peak : 1.000000
CRC32 hash (test run) : F19E50CA
CRC32 hash : F19E50CA
CRC32 hash (skip zero) : A3AB3684
AccurateRip v1 signature : 09BF0EE2
AccurateRip v2 signature : BB2AFCDB
->Track not present in AccurateRip database.
Statistics
Read error : 0
Jitter error (maybe fixed) : 0
Retry sector count : 0
Damaged sector count : 0

Track 06
Filename : /Volumes/FreeAgent GoFlex Drive/Music/FLAC/Phantogram - Voices/06 - Howling At The Moon.flac
Pre-gap length : 00:01:55

Track gain : -11.44 dB
Peak : 1.000000
CRC32 hash (test run) : 74BE8756
CRC32 hash : 74BE8756
CRC32 hash (skip zero) : 2D497177
AccurateRip v1 signature : A45D035C
AccurateRip v2 signature : 0E0AFB81
->Track not present in AccurateRip database.
Statistics
Read error : 0
Jitter error (maybe fixed) : 0
Retry sector count : 0
Damaged sector count : 0

Track 07
Filename : /Volumes/FreeAgent GoFlex Drive/Music/FLAC/Phantogram - Voices/07 - Bad Dreams.flac

Track gain : -8.81 dB
Peak : 1.000000
CRC32 hash (test run) : 846549D8
CRC32 hash : 846549D8
CRC32 hash (skip zero) : D1495C36
AccurateRip v1 signature : 391D2572
AccurateRip v2 signature : 4E447954
->Track not present in AccurateRip database.
Statistics
Read error : 0
Jitter error (maybe fixed) : 0
Retry sector count : 0
Damaged sector count : 0

Track 08
Filename : /Volumes/FreeAgent GoFlex Drive/Music/FLAC/Phantogram - Voices/08 - Bill Murray.flac
Pre-gap length : 00:01:10

Track gain : -9.56 dB
Peak : 1.000000
CRC32 hash (test run) : DC8A480B
CRC32 hash : DC8A480B
CRC32 hash (skip zero) : 622B3EF9
AccurateRip v1 signature : A1C726B3
AccurateRip v2 signature : D9D38C6D
->Track not present in AccurateRip database.
Statistics
Read error : 0
Jitter error (maybe fixed) : 0
Retry sector count : 0
Damaged sector count : 0

Track 09
Filename : /Volumes/FreeAgent GoFlex Drive/Music/FLAC/Phantogram - Voices/09 - I Don’t Blame You.flac
Pre-gap length : 00:00:44

Track gain : -10.75 dB
Peak : 1.000000
CRC32 hash (test run) : F3804408
CRC32 hash : F3804408
CRC32 hash (skip zero) : A9EA5199
AccurateRip v1 signature : FEF194A9
AccurateRip v2 signature : 221938CB
->Track not present in AccurateRip database.
Statistics
Read error : 0
Jitter error (maybe fixed) : 0
Retry sector count : 0
Damaged sector count : 0

Track 10
Filename : /Volumes/FreeAgent GoFlex Drive/Music/FLAC/Phantogram - Voices/10 - Celebrating Nothing.flac

Track gain : -9.48 dB
Peak : 1.000000
CRC32 hash (test run) : 68BDF051
CRC32 hash : 68BDF051
CRC32 hash (skip zero) : BA4A2092
AccurateRip v1 signature : F81828DD
AccurateRip v2 signature : 255B6315
->Track not present in AccurateRip database.
Statistics
Read error : 0
Jitter error (maybe fixed) : 0
Retry sector count : 0
Damaged sector count : 0

Track 11
Filename : /Volumes/FreeAgent GoFlex Drive/Music/FLAC/Phantogram - Voices/11 - My Only Friend.flac
Pre-gap length : 00:01:36

Track gain : -10.91 dB
Peak : 1.000000
CRC32 hash (test run) : FBDCBA8D
CRC32 hash : FBDCBA8D
CRC32 hash (skip zero) : 00414B86
AccurateRip v1 signature : 930E59BB
AccurateRip v2 signature : 3B7EA529
->Track not present in AccurateRip database.
Statistics
Read error : 0
Jitter error (maybe fixed) : 0
Retry sector count : 0
Damaged sector count : 0

No errors occurred

End of status report

-----BEGIN XLD SIGNATURE-----
nN0Kd52ijvnZ4duadAQsfbVyvEWfDADwjll8PVRIyF7ZDeEIqQLXj1o_jiQjNLUbN.pENTlq2mJqZqNuYtedJ8OQVaSmONDEPjN4wkC
-----END XLD SIGNATURE-----
Содержание индексной карты (.CUE)
TITLE "Voices"
PERFORMER "Phantogram"
CATALOG 0602537664597
REM GENRE "Alternative"
REM DATE "2014"
REM DISCNUMBER 1
REM TOTALDISCS 1
REM DISCID 960A470B
REM REPLAYGAIN_ALBUM_GAIN -10.73 dB
REM REPLAYGAIN_ALBUM_PEAK 1.000000
FILE "01 - Nothing But Trouble.flac" WAVE
TRACK 01 AUDIO
TITLE "Nothing But Trouble"
SONGWRITER "Josh Carter/Sarah Barthel"
ISRC USUM71318565
FLAGS DCP
REM REPLAYGAIN_TRACK_GAIN -9.73 dB
REM REPLAYGAIN_TRACK_PEAK 1.000000
INDEX 01 00:00:00
TRACK 02 AUDIO
TITLE "Black Out Days"
SONGWRITER "Josh Carter/Sarah Barthel"
ISRC USUM71312035
FLAGS DCP
REM REPLAYGAIN_TRACK_GAIN -10.12 dB
REM REPLAYGAIN_TRACK_PEAK 1.000000
INDEX 00 04:05:04
FILE "02 - Black Out Days.flac" WAVE
INDEX 01 00:00:00
FILE "03 - Fall In Love.flac" WAVE
TRACK 03 AUDIO
TITLE "Fall In Love"
SONGWRITER "Josh Carter/Sarah Barthel"
ISRC USUM71318566
FLAGS DCP
REM REPLAYGAIN_TRACK_GAIN -11.75 dB
REM REPLAYGAIN_TRACK_PEAK 1.000000
INDEX 01 00:00:00
TRACK 04 AUDIO
TITLE "Never Going Home"
SONGWRITER "Josh Carter/Sarah Barthel"
ISRC USUM71312037
FLAGS DCP
REM REPLAYGAIN_TRACK_GAIN -10.70 dB
REM REPLAYGAIN_TRACK_PEAK 1.000000
INDEX 00 03:43:17
FILE "04 - Never Going Home.flac" WAVE
INDEX 01 00:00:00
TRACK 05 AUDIO
TITLE "The Day You Died"
SONGWRITER "Josh Carter/Sarah Barthel"
ISRC USUM71312034
FLAGS DCP
REM REPLAYGAIN_TRACK_GAIN -11.30 dB
REM REPLAYGAIN_TRACK_PEAK 1.000000
INDEX 00 04:34:17
FILE "05 - The Day You Died.flac" WAVE
INDEX 01 00:00:00
TRACK 06 AUDIO
TITLE "Howling At The Moon"
SONGWRITER "Josh Carter/Sarah Barthel"
ISRC USUM71318567
FLAGS DCP
REM REPLAYGAIN_TRACK_GAIN -11.44 dB
REM REPLAYGAIN_TRACK_PEAK 1.000000
INDEX 00 03:49:25
FILE "06 - Howling At The Moon.flac" WAVE
INDEX 01 00:00:00
FILE "07 - Bad Dreams.flac" WAVE
TRACK 07 AUDIO
TITLE "Bad Dreams"
SONGWRITER "Josh Carter/Sarah Barthel"
ISRC USUM71318568
FLAGS DCP
REM REPLAYGAIN_TRACK_GAIN -8.81 dB
REM REPLAYGAIN_TRACK_PEAK 1.000000
INDEX 01 00:00:00
TRACK 08 AUDIO
TITLE "Bill Murray"
SONGWRITER "Josh Carter/Sarah Barthel"
ISRC USUM71318569
FLAGS DCP
REM REPLAYGAIN_TRACK_GAIN -9.56 dB
REM REPLAYGAIN_TRACK_PEAK 1.000000
INDEX 00 04:18:66
FILE "08 - Bill Murray.flac" WAVE
INDEX 01 00:00:00
TRACK 09 AUDIO
TITLE "I Don’t Blame You"
SONGWRITER "Josh Carter/Sarah Barthel"
ISRC USUM71318570
FLAGS DCP
REM REPLAYGAIN_TRACK_GAIN -10.75 dB
REM REPLAYGAIN_TRACK_PEAK 1.000000
INDEX 00 03:35:29
FILE "09 - I Don’t Blame You.flac" WAVE
INDEX 01 00:00:00
FILE "10 - Celebrating Nothing.flac" WAVE
TRACK 10 AUDIO
TITLE "Celebrating Nothing"
SONGWRITER "Josh Carter/Sarah Barthel"
ISRC USUM71312039
FLAGS DCP
REM REPLAYGAIN_TRACK_GAIN -9.48 dB
REM REPLAYGAIN_TRACK_PEAK 1.000000
INDEX 01 00:00:00
TRACK 11 AUDIO
TITLE "My Only Friend"
SONGWRITER "Josh Carter/Sarah Barthel"
ISRC USUM71318571
FLAGS DCP
REM REPLAYGAIN_TRACK_GAIN -10.91 dB
REM REPLAYGAIN_TRACK_PEAK 1.000000
INDEX 00 03:46:36
FILE "11 - My Only Friend.flac" WAVE
INDEX 01 00:00:00



Phantogram - Voices [2014].torrent
Трекер: Зарегистрирован

magnet ссылка

 


Скачать .torrent

13 KB

Статус: проверено (by BOOT в 24-Фев-14 15:48)
Зарегистрирован: 24-Фев-14 12:47
Скачан: 44 раза
Размер: 296 MB | 
Поблагодарили:
Скачать (Electronic, Indie, Trip-Hop) Phantogram - Voices - 2014, FLAC (tracks+.cue), lossless торрент
 


Похожие раздачи

BOOT

post 24-Фев-14 13:33 (спустя 46 минут)

шаблон http://rustorka3.innal.top/forum/viewtopic.php?t=57430

Текущее время: 28-Янв 00:54

Часовой пояс: GMT + 3



Вы не можете начинать темы
Вы не можете отвечать на сообщения
Вы не можете редактировать свои сообщения
Вы не можете удалять свои сообщения
Вы не можете голосовать в опросах
Вы не можете прикреплять файлы к сообщениям
Вы не можете скачивать файлы