Loading...
Error
 

Скачать торрент (Synthpop, New Wave) Alphaville - Forever Young (Super Deluxe Limited Edition, 3 CD) - 2019 [FLAC, image +.cue, lossless]

 
Автор Сообщение

trygg

post 19-Мар-19 15:14


Alphaville - Forever Young (Super Deluxe Limited Edition, 3 CD)


pic
Год издания: 2019
Страна: Germany pic
Жанр: Synthpop, New Wave
Продолжительность: 03:09:04
Лейбл издания: Rhino Records / Warner Music
Страна-выпуска диска: EU pic
Номер по каталогу: 0190295509033
Формат: FLAC
Битрейт аудио: Lossless
Тип рипа: image +.cue
Наличие сканов в содержимом раздачи: front

pic
Трэклист
CD 1 - Original Album Remastered | 00:43:49
01. A Victory of Love (4:19)
02. Summer in Berlin (4:48)
03. Big in Japan (4:47)
04. To Germany With Love (4:15)
05. Fallen Angel (3:59)
06. Forever Young (3:48)
07. In the Mood (4:34)
08. Sounds Like a Melody (4:48)
09. Lies (3:35)
10. The Jet Set (4:56)
CD 2 - Original Singles, B-Sides, 12" Versions | 01:13:33
01. Big In Japan (Single Version) (3:57)
02. Seeds (3:21)
03. Sounds Like A Melody (Single Version) (4:34)
04. The Nelson Highrise Sector 1-The Elevator (Single Version) (3:20)
05. Forever Young (Version Rapide) (3:53)
06. Welcome To The Sun (3:14)
07. The Jet Set (Single Remix) (3:55)
08. Golden Feeling (3:56)
09. Big In Japan (Extended Remix) (7:27)
10. Sounds Like A Melody (Special Long Version) (7:47)
11. The Nelson Highrise Sector 1-The Elevator (4:16)
12. Forever Young (Special Extended Dance Mix) (6:14)
13. The Jet Set (Jellybean Mix) (6:33)
14. Big In Japan (Extended Instrumental) (6:00)
15. The Jet Set (Dub Mix) (5:08)
CD 3 - Demo Versions | 01:11:41
01. A Victory Of Love (Demo Remix) (4:19)
02. Summer In Berlin (Original Demo) (6:59)
03. Big In Japan (Demo Remix) (6:26)
04. To Germany With Love (Original Demo) (4:32)
05. Fallen Angel (Demo Remix) (4:10)
06. Forever Young (Demo Remix) (4:47)
07. In The Mood (Demo Remix) (5:07)
08. Sounds Like A Melody (Original Demo) (4:27)
09. Lies (Original Demo) (3:51)
10. The Jet Set (Original Demo) (4:24)
11. Leben Ohne Ende/Seeds (Original Demo) (3:18)
12. Traumtдnzer (Original Demo) (5:21)
13. Blauer Engel (Original Demo) (4:43)
14. Romance (Demo Sketch) (1:19)
15. Colours (Instrumental) (3:27)
16. Into The Dark (Demo Remix) (4:33)

pic
Лог создания рипа
CD 1 - Original Album Remastered

Код:

Exact Audio Copy V1.3 from 2. September 2016

EAC extraction logfile from 15. March 2019, 16:28

Alphaville / Forever Young CD1

Used drive  : HL-DT-STDVDRAM GH22LS50   Adapter: 1  ID: 0

Read mode               : Secure
Utilize accurate stream : Yes
Defeat audio cache      : Yes
Make use of C2 pointers : No

Read offset correction                      : 667
Overread into Lead-In and Lead-Out          : No
Fill up missing offset samples with silence : Yes
Delete leading and trailing silent blocks   : No
Null samples used in CRC calculations       : Yes
Used interface                              : Native Win32 interface for Win NT & 2000

Used output format              : User Defined Encoder
Selected bitrate                : 1024 kBit/s
Quality                         : High
Add ID3 tag                     : Yes
Command line compressor         : C:\Program Files (x86)\Exact Audio Copy\FLAC\FLAC.EXE
Additional command line options : -V -8 -T "Date=%year%" -T "Genre=%genre%" %source%

TOC of the extracted CD

     Track |   Start  |  Length  | Start sector | End sector
    ---------------------------------------------------------
        1  |  0:00.00 |  4:19.04 |         0    |    19428
        2  |  4:19.04 |  4:48.15 |     19429    |    41043
        3  |  9:07.19 |  4:46.47 |     41044    |    62540
        4  | 13:53.66 |  4:15.13 |     62541    |    81678
        5  | 18:09.04 |  3:58.62 |     81679    |    99590
        6  | 22:07.66 |  3:48.00 |     99591    |   116690
        7  | 25:55.66 |  4:34.00 |    116691    |   137240
        8  | 30:29.66 |  4:48.13 |    137241    |   158853
        9  | 35:18.04 |  3:34.59 |    158854    |   174962
       10  | 38:52.63 |  4:56.28 |    174963    |   197190

Range status and errors

Selected range

     Filename F:\Alphaville - 2019 - Forever Young (Super Deluxe Limited Edition)\CD1\Alphaville - Forever Young CD1.wav

     Peak level 100.0 %
     Extraction speed 6.7 X
     Range quality 100.0 %
     Test CRC 9A5EED60
     Copy CRC 9A5EED60
     Copy OK

No errors occurred

End of status report
CD 2 - Original Singles, B-Sides, 12" Versions

Код:

Exact Audio Copy V1.3 from 2. September 2016

EAC extraction logfile from 15. March 2019, 17:17

Alphaville / Forever Young CD2

Used drive  : PIONEER BD-RW   BDR-209D   Adapter: 1  ID: 1

Read mode               : Secure
Utilize accurate stream : Yes
Defeat audio cache      : Yes
Make use of C2 pointers : No

Read offset correction                      : 667
Overread into Lead-In and Lead-Out          : No
Fill up missing offset samples with silence : Yes
Delete leading and trailing silent blocks   : No
Null samples used in CRC calculations       : Yes
Used interface                              : Native Win32 interface for Win NT & 2000

Used output format              : User Defined Encoder
Selected bitrate                : 1024 kBit/s
Quality                         : High
Add ID3 tag                     : Yes
Command line compressor         : C:\Program Files (x86)\Exact Audio Copy\FLAC\FLAC.EXE
Additional command line options : -V -8 -T "Date=%year%" -T "Genre=%genre%" %source%

TOC of the extracted CD

     Track |   Start  |  Length  | Start sector | End sector
    ---------------------------------------------------------
        1  |  0:00.00 |  3:56.52 |         0    |    17751
        2  |  3:56.52 |  3:20.39 |     17752    |    32790
        3  |  7:17.16 |  4:34.08 |     32791    |    53348
        4  | 11:51.24 |  3:19.51 |     53349    |    68324
        5  | 15:11.00 |  3:53.28 |     68325    |    85827
        6  | 19:04.28 |  3:13.67 |     85828    |   100369
        7  | 22:18.20 |  3:54.52 |    100370    |   117971
        8  | 26:12.72 |  3:55.42 |    117972    |   135638
        9  | 30:08.39 |  7:27.13 |    135639    |   169176
       10  | 37:35.52 |  7:46.38 |    169177    |   204164
       11  | 45:22.15 |  4:15.61 |    204165    |   223350
       12  | 49:38.01 |  6:13.64 |    223351    |   251389
       13  | 55:51.65 |  6:33.30 |    251390    |   280894
       14  | 62:25.20 |  5:59.74 |    280895    |   307893
       15  | 68:25.19 |  5:08.03 |    307894    |   330996

Range status and errors

Selected range

     Filename F:\Alphaville - 2019 - Forever Young (Super Deluxe Limited Edition)\CD2\Alphaville - Forever Young CD2.wav

     Peak level 100.0 %
     Extraction speed 5.0 X
     Range quality 99.9 %
     Test CRC 0B87EFC2
     Copy CRC 0B87EFC2
     Copy OK

No errors occurred

AccurateRip summary

Track  1  not present in database
Track  2  not present in database
Track  3  not present in database
Track  4  not present in database
Track  5  not present in database
Track  6  not present in database
Track  7  not present in database
Track  8  not present in database
Track  9  not present in database
Track 10  not present in database
Track 11  not present in database
Track 12  not present in database
Track 13  not present in database
Track 14  not present in database
Track 15  not present in database

None of the tracks are present in the AccurateRip database

End of status report
CD 3 - Demo Versions

Код:

Exact Audio Copy V1.3 from 2. September 2016

EAC extraction logfile from 15. March 2019, 19:06

Alphaville / Forever Young CD3

Used drive  : HL-DT-STDVDRAM GH22LS50   Adapter: 1  ID: 0

Read mode               : Secure
Utilize accurate stream : Yes
Defeat audio cache      : Yes
Make use of C2 pointers : No

Read offset correction                      : 667
Overread into Lead-In and Lead-Out          : No
Fill up missing offset samples with silence : Yes
Delete leading and trailing silent blocks   : No
Null samples used in CRC calculations       : Yes
Used interface                              : Native Win32 interface for Win NT & 2000

Used output format              : User Defined Encoder
Selected bitrate                : 1024 kBit/s
Quality                         : High
Add ID3 tag                     : Yes
Command line compressor         : C:\Program Files (x86)\Exact Audio Copy\FLAC\FLAC.EXE
Additional command line options : -V -8 -T "Date=%year%" -T "Genre=%genre%" %source%

TOC of the extracted CD

     Track |   Start  |  Length  | Start sector | End sector
    ---------------------------------------------------------
        1  |  0:00.00 |  4:19.01 |         0    |    19425
        2  |  4:19.01 |  6:58.71 |     19426    |    50846
        3  | 11:17.72 |  6:26.05 |     50847    |    79801
        4  | 17:44.02 |  4:31.47 |     79802    |   100173
        5  | 22:15.49 |  4:10.26 |    100174    |   118949
        6  | 26:26.00 |  4:47.01 |    118950    |   140475
        7  | 31:13.01 |  5:06.72 |    140476    |   163497
        8  | 36:19.73 |  4:27.01 |    163498    |   183523
        9  | 40:46.74 |  3:50.61 |    183524    |   200834
       10  | 44:37.60 |  4:24.01 |    200835    |   220635
       11  | 49:01.61 |  3:17.60 |    220636    |   235470
       12  | 52:19.46 |  5:20.41 |    235471    |   259511
       13  | 57:40.12 |  4:42.46 |    259512    |   280707
       14  | 62:22.58 |  1:19.10 |    280708    |   286642
       15  | 63:41.68 |  3:26.39 |    286643    |   302131
       16  | 67:08.32 |  4:32.59 |    302132    |   322590

Range status and errors

Selected range

     Filename F:\Alphaville - 2019 - Forever Young (Super Deluxe Limited Edition)\CD3\Alphaville - Forever Young CD3.wav

     Peak level 100.0 %
     Extraction speed 7.5 X
     Range quality 100.0 %
     Test CRC 523ABE0E
     Copy CRC 523ABE0E
     Copy OK

No errors occurred

End of status report
Индексная карта (non-compilant .cue)
CD 1 - Original Album Remastered

Код:

REM GENRE Pop
REM DATE 2019
REM DISCID 770A450A
REM COMMENT "ExactAudioCopy v1.3"
PERFORMER "Alphaville"
TITLE "Forever Young CD1"
REM COMPOSER ""
FILE "Alphaville - Forever Young CD1.flac" WAVE
  TRACK 01 AUDIO
    TITLE "A Victory of Love"
    PERFORMER "Alphaville"
    REM COMPOSER ""
    INDEX 01 00:00:00
  TRACK 02 AUDIO
    TITLE "Summer in Berlin"
    PERFORMER "Alphaville"
    REM COMPOSER ""
    INDEX 00 04:17:04
    INDEX 01 04:19:04
  TRACK 03 AUDIO
    TITLE "Big in Japan"
    PERFORMER "Alphaville"
    REM COMPOSER ""
    INDEX 00 09:05:19
    INDEX 01 09:07:19
  TRACK 04 AUDIO
    TITLE "To Germany With Love"
    PERFORMER "Alphaville"
    REM COMPOSER ""
    INDEX 00 13:51:66
    INDEX 01 13:53:66
  TRACK 05 AUDIO
    TITLE "Fallen Angel"
    PERFORMER "Alphaville"
    REM COMPOSER ""
    INDEX 00 18:07:04
    INDEX 01 18:09:04
  TRACK 06 AUDIO
    TITLE "Forever Young"
    PERFORMER "Alphaville"
    REM COMPOSER ""
    INDEX 00 22:05:66
    INDEX 01 22:07:66
  TRACK 07 AUDIO
    TITLE "In the Mood"
    PERFORMER "Alphaville"
    REM COMPOSER ""
    INDEX 00 25:53:66
    INDEX 01 25:55:66
  TRACK 08 AUDIO
    TITLE "Sounds Like a Melody"
    PERFORMER "Alphaville"
    REM COMPOSER ""
    INDEX 00 30:27:66
    INDEX 01 30:29:66
  TRACK 09 AUDIO
    TITLE "Lies"
    PERFORMER "Alphaville"
    REM COMPOSER ""
    INDEX 00 35:16:04
    INDEX 01 35:18:04
  TRACK 10 AUDIO
    TITLE "The Jet Set"
    PERFORMER "Alphaville"
    REM COMPOSER ""
    INDEX 00 38:50:63
    INDEX 01 38:52:63
CD 2 - Original Singles, B-Sides, 12" Versions

Код:

REM GENRE Pop
REM DATE 2019
REM DISCID C7113D0F
REM COMMENT "ExactAudioCopy v1.3"
PERFORMER "Alphaville"
TITLE "Forever Young CD2"
REM COMPOSER ""
FILE "Alphaville - Forever Young CD2.flac" WAVE
  TRACK 01 AUDIO
    TITLE "Big In Japan (Single Version)"
    PERFORMER "Alphaville"
    REM COMPOSER ""
    INDEX 01 00:00:00
  TRACK 02 AUDIO
    TITLE "Seeds"
    PERFORMER "Alphaville"
    REM COMPOSER ""
    INDEX 00 03:54:52
    INDEX 01 03:56:52
  TRACK 03 AUDIO
    TITLE "Sounds Like A Melody (Single Version)"
    PERFORMER "Alphaville"
    REM COMPOSER ""
    INDEX 00 07:15:16
    INDEX 01 07:17:16
  TRACK 04 AUDIO
    TITLE "The Nelson Highrise Sector 1-The Elevator (Single Version)"
    PERFORMER "Alphaville"
    REM COMPOSER ""
    INDEX 00 11:49:24
    INDEX 01 11:51:24
  TRACK 05 AUDIO
    TITLE "Forever Young (Version Rapide)"
    PERFORMER "Alphaville"
    REM COMPOSER ""
    INDEX 00 15:09:00
    INDEX 01 15:11:00
  TRACK 06 AUDIO
    TITLE "Welcome To The Sun"
    PERFORMER "Alphaville"
    REM COMPOSER ""
    INDEX 00 19:02:28
    INDEX 01 19:04:28
  TRACK 07 AUDIO
    TITLE "The Jet Set (Single Remix)"
    PERFORMER "Alphaville"
    REM COMPOSER ""
    INDEX 00 22:16:20
    INDEX 01 22:18:20
  TRACK 08 AUDIO
    TITLE "Golden Feeling"
    PERFORMER "Alphaville"
    REM COMPOSER ""
    INDEX 00 26:10:72
    INDEX 01 26:12:72
  TRACK 09 AUDIO
    TITLE "Big In Japan (Extended Remix)"
    PERFORMER "Alphaville"
    REM COMPOSER ""
    INDEX 00 30:06:39
    INDEX 01 30:08:39
  TRACK 10 AUDIO
    TITLE "Sounds Like A Melody (Special Long Version)"
    PERFORMER "Alphaville"
    REM COMPOSER ""
    INDEX 00 37:33:52
    INDEX 01 37:35:52
  TRACK 11 AUDIO
    TITLE "The Nelson Highrise Sector 1-The Elevator"
    PERFORMER "Alphaville"
    REM COMPOSER ""
    INDEX 00 45:20:15
    INDEX 01 45:22:15
  TRACK 12 AUDIO
    TITLE "Forever Young (Special Extended Dance Mix)"
    PERFORMER "Alphaville"
    REM COMPOSER ""
    INDEX 00 49:36:01
    INDEX 01 49:38:01
  TRACK 13 AUDIO
    TITLE "The Jet Set (Jellybean Mix)"
    PERFORMER "Alphaville"
    REM COMPOSER ""
    INDEX 00 55:49:65
    INDEX 01 55:51:65
  TRACK 14 AUDIO
    TITLE "Big In Japan (Extended Instrumental)"
    PERFORMER "Alphaville"
    REM COMPOSER ""
    INDEX 00 62:23:20
    INDEX 01 62:25:20
  TRACK 15 AUDIO
    TITLE "The Jet Set (Dub Mix)"
    PERFORMER "Alphaville"
    REM COMPOSER ""
    INDEX 00 68:23:19
    INDEX 01 68:25:19
CD 3 - Demo Versions

Код:

REM GENRE Pop
REM DATE 2019
REM DISCID F010CD10
REM COMMENT "ExactAudioCopy v1.3"
PERFORMER "Alphaville"
TITLE "Forever Young CD3"
REM COMPOSER ""
FILE "Alphaville - Forever Young CD3.flac" WAVE
  TRACK 01 AUDIO
    TITLE "A Victory Of Love (Demo Remix)"
    PERFORMER "Alphaville"
    REM COMPOSER ""
    INDEX 01 00:00:00
  TRACK 02 AUDIO
    TITLE "Summer In Berlin (Original Demo)"
    PERFORMER "Alphaville"
    REM COMPOSER ""
    INDEX 00 04:17:01
    INDEX 01 04:19:01
  TRACK 03 AUDIO
    TITLE "Big In Japan (Demo Remix)"
    PERFORMER "Alphaville"
    REM COMPOSER ""
    INDEX 00 11:15:72
    INDEX 01 11:17:72
  TRACK 04 AUDIO
    TITLE "To Germany With Love (Original Demo)"
    PERFORMER "Alphaville"
    REM COMPOSER ""
    INDEX 00 17:42:02
    INDEX 01 17:44:02
  TRACK 05 AUDIO
    TITLE "Fallen Angel (Demo Remix)"
    PERFORMER "Alphaville"
    REM COMPOSER ""
    INDEX 00 22:13:49
    INDEX 01 22:15:49
  TRACK 06 AUDIO
    TITLE "Forever Young (Demo Remix)"
    PERFORMER "Alphaville"
    REM COMPOSER ""
    INDEX 00 26:24:00
    INDEX 01 26:26:00
  TRACK 07 AUDIO
    TITLE "In The Mood (Demo Remix)"
    PERFORMER "Alphaville"
    REM COMPOSER ""
    INDEX 00 31:11:01
    INDEX 01 31:13:01
  TRACK 08 AUDIO
    TITLE "Sounds Like A Melody (Original Demo)"
    PERFORMER "Alphaville"
    REM COMPOSER ""
    INDEX 00 36:17:73
    INDEX 01 36:19:73
  TRACK 09 AUDIO
    TITLE "Lies (Original Demo)"
    PERFORMER "Alphaville"
    REM COMPOSER ""
    INDEX 00 40:44:74
    INDEX 01 40:46:74
  TRACK 10 AUDIO
    TITLE "The Jet Set (Original Demo)"
    PERFORMER "Alphaville"
    REM COMPOSER ""
    INDEX 00 44:35:60
    INDEX 01 44:37:60
  TRACK 11 AUDIO
    TITLE "Leben Ohne Ende/Seeds (Original Demo)"
    PERFORMER "Alphaville"
    REM COMPOSER ""
    INDEX 00 48:59:61
    INDEX 01 49:01:61
  TRACK 12 AUDIO
    TITLE "Traumtдnzer (Original Demo)"
    PERFORMER "Alphaville"
    REM COMPOSER ""
    INDEX 00 52:17:46
    INDEX 01 52:19:46
  TRACK 13 AUDIO
    TITLE "Blauer Engel (Original Demo)"
    PERFORMER "Alphaville"
    REM COMPOSER ""
    INDEX 00 57:38:12
    INDEX 01 57:40:12
  TRACK 14 AUDIO
    TITLE "Romance (Demo Sketch)"
    PERFORMER "Alphaville"
    REM COMPOSER ""
    INDEX 00 62:20:58
    INDEX 01 62:22:58
  TRACK 15 AUDIO
    TITLE "Colours (Instrumental)"
    PERFORMER "Alphaville"
    REM COMPOSER ""
    INDEX 00 63:39:68
    INDEX 01 63:41:68
  TRACK 16 AUDIO
    TITLE "Into The Dark (Demo Remix)"
    PERFORMER "Alphaville"
    REM COMPOSER ""
    INDEX 00 67:06:32
    INDEX 01 67:08:32

pic
для ознакомления:
pic
pic



Alphaville - 2019 - Forever Young (Super Deluxe Limited Edition).torrent
Трекер: Зарегистрирован

magnet ссылка

 


Скачать .torrent

14 KB

Статус: проверено (by E IL o T IR i X в 19-Мар-19 15:44)
Зарегистрирован: 19-Мар-19 15:14
Скачан: 88 раз
Размер: 1.18 GB | 
Поблагодарили:
Скачать (Synthpop, New Wave) Alphaville - Forever Young (Super Deluxe Limited Edition, 3 CD) - 2019 [FLAC, image +.cue, lossless] торрент
 


Похожие раздачи

vianox

post 19-Мар-19 19:14 (спустя 3 часа)

ахуенно

ВИКТОР1980

post 19-Мар-19 22:15 (спустя 3 часа)

про клип в ознакомлении, эту песню я впервые услышал от guano apes в 1999г ... спасибо..

trygg

post 19-Мар-19 22:45 (спустя 29 минут)

ВИКТОР1980

Вот раннее выступления группы.
Alphaville - Big In Japan - - Flashlights 1984
Молодые еще совсем ребята....

Текущее время: 04-Мар 03:25

Часовой пояс: GMT + 3



Вы не можете начинать темы
Вы не можете отвечать на сообщения
Вы не можете редактировать свои сообщения
Вы не можете удалять свои сообщения
Вы не можете голосовать в опросах
Вы не можете прикреплять файлы к сообщениям
Вы не можете скачивать файлы