Loading...
Error
 

Скачать торрент Кровяная гимнастика (2014). Тренинг [Иван Кузнецов] (2014, Здоровье, гимнастика, WebDL) R.G. Мастер-Класс

 
Автор Сообщение

Music Listener

post 11-Авг-15 18:11

Кровяная гимнастика (2014)


pic
  • Год выпуска: 2014
  • Страна: Россия
  • Тематика: Здоровье, гимнастика
  • Тип материала: Обучающее видео
  • Продолжительность: ~6 часов
  • Автор: Иван Кузнецов
  • Язык: Русский
    Описание:
    Чтобы снабжать ткани кровью и обеспечить правильный цикл кровообращения – не обязательно ходить каждый день в спортзал и проводить досуг активно. Достаточно 15 минут в день и правильного выполнения некоторых несложных упражнений, дающих мощнейший эффект.

    Улучшаем кровообращение за 21 день. Программа рассчитана на 3 недели. 12 видео уроков, 17 вебинаров с ответами на вопросы.

    Научитесь правильно выполнять Кровяную Гимнастику под руководством единственного тренера, который проводит сегодня такое обучение и Вы:
    *Получите мощнейший заряд энергии на каждый день
    *Обеспечите организм, все ткани, клетки необходимыми веществами для жизни так же, как Вы сделали бы это, проведя 3 часа в спортзале и вечер на прогулке
    *Положительным образом повлияете на потенцию, если Вы мужчина,
    *поставите защиту от болезней дыхательных путей, сердца, других жизненно важных органов, желудочно-кишечного тракта и даже онкологии
    *С большей вероятностью переживете своих сверстников, как и ученый Иван Голованов, открывший потрясающие возможности Кровяной Гимнастики.


  • Качество: WebDL
  • Формат: MP4, MP3
  • Видео кодек: AVC
  • Аудио кодек: AAC-LC
  • Видео: avc1, 1280x720/1600x900, ~571 / ~781 Kbps, 30 fps
  • Аудио: AAC-LC, 44.1 KHz, 2 ch stereo, 53.6 Кбит/сек



MediaInfo

Код:

Общее
Полное имя                               : D:\Мастер-Класс\Кровяная гимнастика (2014)\1.Первая неделя тренинга\1.Понедельник\Первый урок..mp4
Формат                                   : MPEG-4
Профиль формата                          : Base Media / Version 2
Идентификатор кодека                     : mp42
Размер файла                             : 138 Мбайт
Продолжительность                        : 29 м.
Общий поток                              : 659 Кбит/сек
Дата кодирования                         : UTC 2014-01-11 18:59:11
Дата пометки                             : UTC 2014-01-11 18:59:11

Видео
Идентификатор                            : 1
Формат                                   : AVC
Формат/Информация                        : Advanced Video Codec
Профиль формата                          : [email protected]
Параметр CABAC формата                   : Да
Параметр ReFrames формата                : 4 кадра
Идентификатор кодека                     : avc1
Идентификатор кодека/Информация          : Advanced Video Coding
Продолжительность                        : 29 м.
Продолжительность оригинала              : 29 м.
Битрейт                                  : 571 Кбит/сек
Ширина                                   : 1280 пикселей
Высота                                   : 720 пикселей
Соотношение сторон                       : 16:9
Режим частоты кадров                     : Постоянный
Частота кадров                           : 30,000 кадров/сек
Стандарт вещания                         : NTSC
Цветовое пространство                    : YUV
Субдискретизация насыщенности            : 4:2:0
Битовая глубина                          : 8 бит
Тип развёртки                            : Прогрессивная
Бит/(Пиксели*Кадры)                      : 0.021
Размер потока                            : 120 Мбайт (87%)
Размер потока оригинала                  : 127 Мбайт (91%)
Язык                                     : English
Дата кодирования                         : UTC 2014-01-11 18:59:11
Дата пометки                             : UTC 2014-01-11 18:59:11
Цветовой диапазон                        : Limited
Основные цвета                           : BT.709
Характеристики трансфера                 : BT.709
Коэффициенты матрицы                     : BT.709
mdhd_Duration                            : 1760258

Аудио
Идентификатор                            : 2
Формат                                   : AAC
Формат/Информация                        : Advanced Audio Codec
Профиль формата                          : LC
Идентификатор кодека                     : 40
Продолжительность                        : 29 м.
Продолжительность оригинала              : 29 м.
Вид битрейта                             : Постоянный
Битрейт                                  : 53,6 Кбит/сек
Каналы                                   : 2 канала
Расположение каналов                     : Front: L R
Частота                                  : 44,1 КГц
Метод сжатия                             : С потерями
Размер потока                            : 11,2 Мбайт (8%)
Размер потока оригинала                  : 11,2 Мбайт (8%)
Язык                                     : English
Дата кодирования                         : UTC 2014-01-11 18:59:11
Дата пометки                             : UTC 2014-01-11 18:59:11
mdhd_Duration                            : 1759254


Код:

Общее
Полное имя                               : D:\Мастер-Класс\Кровяная гимнастика (2014)\3.Третья неделя тренинга\1.Понедельник\Тренировка №1.mp4
Формат                                   : MPEG-4
Профиль формата                          : Base Media / Version 2
Идентификатор кодека                     : mp42
Размер файла                             : 172 Мбайт
Продолжительность                        : 27 м.
Общий поток                              : 878 Кбит/сек
Дата кодирования                         : UTC 2014-01-18 12:07:27
Дата пометки                             : UTC 2014-01-18 12:07:27

Видео
Идентификатор                            : 1
Формат                                   : AVC
Формат/Информация                        : Advanced Video Codec
Профиль формата                          : [email protected]
Параметр CABAC формата                   : Да
Параметр ReFrames формата                : 4 кадра
Идентификатор кодека                     : avc1
Идентификатор кодека/Информация          : Advanced Video Coding
Продолжительность                        : 27 м.
Продолжительность оригинала              : 27 м.
Битрейт                                  : 781 Кбит/сек
Ширина                                   : 1600 пикселей
Высота                                   : 900 пикселей
Соотношение сторон                       : 16:9
Режим частоты кадров                     : Постоянный
Частота кадров                           : 30,000 кадров/сек
Стандарт вещания                         : NTSC
Цветовое пространство                    : YUV
Субдискретизация насыщенности            : 4:2:0
Битовая глубина                          : 8 бит
Тип развёртки                            : Прогрессивная
Бит/(Пиксели*Кадры)                      : 0.018
Размер потока                            : 153 Мбайт (89%)
Размер потока оригинала                  : 161 Мбайт (94%)
Язык                                     : English
Дата кодирования                         : UTC 2014-01-18 12:07:27
Дата пометки                             : UTC 2014-01-18 12:07:27
Цветовой диапазон                        : Limited
Основные цвета                           : BT.709
Характеристики трансфера                 : BT.709
Коэффициенты матрицы                     : BT.709
mdhd_Duration                            : 1640987

Аудио
Идентификатор                            : 2
Формат                                   : AAC
Формат/Информация                        : Advanced Audio Codec
Профиль формата                          : LC
Идентификатор кодека                     : 40
Продолжительность                        : 27 м.
Продолжительность оригинала              : 27 м.
Вид битрейта                             : Постоянный
Битрейт                                  : 53,6 Кбит/сек
Каналы                                   : 2 канала
Расположение каналов                     : Front: L R
Частота                                  : 44,1 КГц
Метод сжатия                             : С потерями
Размер потока                            : 10,5 Мбайт (6%)
Размер потока оригинала                  : 10,5 Мбайт (6%)
Язык                                     : English
Дата кодирования                         : UTC 2014-01-18 12:07:27
Дата пометки                             : UTC 2014-01-18 12:07:27
mdhd_Duration                            : 1640087
Скриншоты
     
pic

[rustorka.com]Кровяная гимнастика (2014).torrent
Трекер: Зарегистрирован

magnet ссылка

 


Скачать .torrent

19 KB

Статус: проверено (by Арт33 в 11-Авг-15 19:02)
Зарегистрирован: 11-Авг-15 18:10
Скачан: 16 раз
Размер: 2.91 GB | 
Поблагодарили:
Скачать Кровяная гимнастика (2014). Тренинг [Иван Кузнецов] (2014, Здоровье, гимнастика, WebDL) R.G. Мастер-Класс торрент
 


Похожие раздачи

Текущее время: 25-Сен 22:38

Часовой пояс: GMT + 3



Вы не можете начинать темы
Вы не можете отвечать на сообщения
Вы не можете редактировать свои сообщения
Вы не можете удалять свои сообщения
Вы не можете голосовать в опросах
Вы не можете прикреплять файлы к сообщениям
Вы не можете скачивать файлы