Loading...
Error
 

Скачать торрент Атака титанов | 4 сезон. Часть 1-2: 1-17 серии из 28 | Shingeki no kyojin (Тэцуро Араки, Масаси Коэдзука, Хироюки Танака) [2020-2022, Аниме, мультфильм, драма, боевик, фантастика, фэнтези, WEBRip 1080p] DUB | StudioBand | DEEP

 
Автор Сообщение

Ankiler

post 08-Дек-20 02:17

«Атака титанов | Shingeki no kyojin»
«The face of humanity's extinction»

pic
- Год выхода: 2020-2022
- Страна: Япония
- Жанр: Аниме, мультфильм, драма, боевик, фантастика, фэнтези
- Продолжительность: ~ 00:24:00
- Перевод: Дублированный [StudioBand]
- Перевод: Дублированный [DEEP]
- Субтитры: Russian | Crunchyroll
- Сезон: 4
- Серии: 1-17 из 28
- Режиссер: Тэцуро Араки, Масаси Коэдзука, Хироюки Танака
- В ролях: Юки Кадзи, Юй Исикава, Марина Иноуэ, Кисё Танияма, Ю Симамура, Ю Кобаяси, Сиори Миками, Хиро Симоно, Рёта Осака, Хироси Камия, Дайсукэ Оно, Роми Пак
- О фильме: Уже 100 лет человечество ведёт борьбу с титанами - огромными существами, которые не обладают особым интеллектом, зато едят людей и получают от этого удовольствие. После продолжительной борьбы остатки человечества построили высокую стену, окружившую страну людей, через которую титаны пройти не могут. С тех пор прошло сто лет, люди мирно живут под защитой стены. Но однажды подросток Эрэн и его сводная сестра Микаса становятся свидетелями страшного события - участок стены разрушается супертитаном, появившимся прямо из воздуха. Титаны нападают на город, и дети в ужасе видят, как один из монстров заживо съедает их мать. Брат с сестрой выживают, и Эрэн клянётся, что убьёт всех титанов и отомстит за человечество.

- Качество: WEBRip 1080p
- Формат: MKV
- Видео кодек: AVC
- Аудио кодек: AAC
- Видео: AVC, 1920x1080 (16:9), 23.976 fps, 8 000 Kbps (0.161 bit/pixel)
- Аудио: AAC LC 48.0 KHz, 2 ch, 319 | 128 Kbps Russian | StudioBand
- Аудио: AAC LC 48.0 KHz, 2 ch, 192 Kbps Russian | DEEP
Рейтинг
pic
MediaInfo

Код:

[KORSARS]_Shingeki.no.Kyojin.The.Final.Season.[S04].WEBRip.1080p_[StudioBand]/[KORSARS]_Shingeki.no.Kyojin.The.Final.Season.[S04E17].WEBRip.1080p_[StudioBand&DEEP].mkv
Format                                   : Matroska
Format version                           : Version 4
File size                                : 1.41 GiB
Duration                                 : 24 min 21 s
Overall bit rate                         : 8 296 kb/s
Movie name                               : [KORSARS]_Shingeki.no.Kyojin.The.Final.Season.[S04E17].WEBRip.1080p_[StudioBand]
Encoded date                             : UTC 2022-01-11 09:32:33
Writing application                      : mkvmerge v63.0.0 ('Everything') 64-bit
Writing library                          : libebml v1.4.2 + libmatroska v1.6.4
Attachments                              : ANTQUAB.TTF / cambriab.ttf / Graffiti2CTT.ttf / tahoma.ttf / tahomabd.ttf / ANGIE-BOLD.TTF / ANGIE-BOLDITALIC.TTF / BSOD.TTF / CLEARFACESSIBOLD.TTF / DAYROMAN.TTF / KINESISSTD-BLACKITALIC.OTF / AGARAMONDPRO-REGULAR.OTF

Video
ID                                       : 1
Format                                   : AVC
Format/Info                              : Advanced Video Codec
Format profile                           : [email protected]
Format settings                          : CABAC / 4 Ref Frames
Format settings, CABAC                   : Yes
Format settings, ReFrames                : 4 frames
Codec ID                                 : V_MPEG4/ISO/AVC
Duration                                 : 23 min 55 s
Bit rate                                 : 8 000 kb/s
Width                                    : 1 920 pixels
Height                                   : 1 080 pixels
Display aspect ratio                     : 16:9
Frame rate mode                          : Constant
Frame rate                               : 23.976 (24000/1001) FPS
Color space                              : YUV
Chroma subsampling                       : 4:2:0
Bit depth                                : 8 bits
Scan type                                : Progressive
Bits/(Pixel*Frame)                       : 0.161
Stream size                              : 1.35 GiB (96%)
Title                                    : [KORSARS]_Shingeki.no.Kyojin.The.Final.Season.[S04E17].WEBRip.1080p_[StudioBand]
Writing library                          : x264 core 157 r2935 545de2f
Encoding settings                        : cabac=1 / ref=3 / deblock=1:0:0 / analyse=0x1:0x111 / me=hex / subme=7 / psy=1 / psy_rd=1.00:0.00 / mixed_ref=1 / me_range=16 / chroma_me=1 / trellis=1 / 8x8dct=0 / cqm=0 / deadzone=21,11 / fast_pskip=1 / chroma_qp_offset=-2 / threads=9 / lookahead_threads=1 / sliced_threads=0 / nr=0 / decimate=1 / interlaced=0 / bluray_compat=0 / constrained_intra=0 / bframes=3 / b_pyramid=2 / b_adapt=1 / b_bias=0 / direct=1 / weightb=1 / open_gop=0 / weightp=2 / keyint=240 / keyint_min=24 / scenecut=40 / intra_refresh=0 / rc_lookahead=40 / rc=abr / mbtree=1 / bitrate=8000 / ratetol=1.0 / qcomp=0.60 / qpmin=0 / qpmax=69 / qpstep=4 / vbv_maxrate=20000 / vbv_bufsize=25000 / nal_hrd=none / filler=0 / ip_ratio=1.40 / aq=1:1.00
Default                                  : Yes
Forced                                   : No
Color range                              : Limited
Color primaries                          : BT.709
Transfer characteristics                 : BT.709
Matrix coefficients                      : BT.709

Audio #1
ID                                       : 2
Format                                   : AAC LC
Format/Info                              : Advanced Audio Codec Low Complexity
Codec ID                                 : A_AAC-2
Duration                                 : 23 min 54 s
Bit rate                                 : 128 kb/s
Channel(s)                               : 2 channels
Channel layout                           : L R
Sampling rate                            : 48.0 kHz
Frame rate                               : 46.875 FPS (1024 SPF)
Compression mode                         : Lossy
Delay relative to video                  : 20 ms
Stream size                              : 21.9 MiB (2%)
Title                                    : [KORSARS]_Shingeki.no.Kyojin.The.Final.Season.[S04E17].WEBRip.1080p_[StudioBand]
Language                                 : Russian
Default                                  : Yes
Forced                                   : No

Audio #2
ID                                       : 3
Format                                   : AAC LC
Format/Info                              : Advanced Audio Codec Low Complexity
Codec ID                                 : A_AAC-2
Duration                                 : 24 min 21 s
Bit rate                                 : 192 kb/s
Channel(s)                               : 2 channels
Channel layout                           : L R
Sampling rate                            : 48.0 kHz
Frame rate                               : 46.875 FPS (1024 SPF)
Compression mode                         : Lossy
Stream size                              : 33.4 MiB (2%)
Title                                    : [KORSARS]_Shingeki.no.Kyojin.The.Final.Season.[S04E17].WEBRip.1080p_[DEEP]
Language                                 : Russian
Default                                  : No
Forced                                   : No

Скриншоты
Внимание!: Раздача ведётся путём добавления новых серий
Внимание! Раздача ведётся путём добавления новых серий; при каждом добавлении создётся новый торрент. Чтобы начать докачку новой серии, пользователям необходимо сделать следующее:
(1) остановить скачивание,
(2) удалить старый торрент у себя из клиента (старые серии удалять не надо),
(3) скачать новый торрент и запустить его у себя в клиенте вместо старого, при этом указать клиенту путь в старую папку куда и должно происходить скачивание новых серий.

Ваш клиент при этом должен произвести хеширование (проверку) старой папки (если не производит сам - помогите ему сделать это), и будет докачивать только те серии которых у вас ещё нет. Старые серии при этом не удаляются, а продолжают раздаваться!

Eсли вы уже удалили старые серии, то предотвратить повторную закачку старых серий можно, отжав галочку в соответсвующих местах при запуске нового торрента. По возможности, желательно не удалять старые серии как можно дольше чтобы релизёр не столько продолжал раздавать старые серии, а смог сконцентрироваться на новых.

(KORSARS)_Shingeki.no.Kyojin.The.Final.Season.(S04).WEBRip.1080p_(StudioBand).torrent
 СЕРЕБРЯНАЯ РАЗДАЧА! СКАЧАННОЕ ЗАСЧИТЫВАЕТСЯ ТОЛЬКО НАПОЛОВИНУ! 
Вечный
Трекер: Зарегистрирован

magnet ссылка

 


Скачать .torrent

240 KB

Статус: проверено (by Snowden в 12-Янв-22 01:26)
Зарегистрирован: 11-Янв-22 23:29
Скачан: 489 раз
Размер: 23.81 GB | 
Поблагодарили:
Скачать Атака титанов | 4 сезон. Часть 1-2: 1-17 серии из 28 | Shingeki no kyojin (Тэцуро Араки, Масаси Коэдзука, Хироюки Танака) [2020-2022, Аниме, мультфильм, драма, боевик, фантастика, фэнтези, WEBRip 1080p] DUB | StudioBand | DEEP торрент
 


Похожие раздачи

Ankiler

post 14-Дек-20 22:03 (спустя 6 дней)

+2

Ankiler

post 21-Дек-20 22:51 (спустя 7 дней)

+3

Ankiler

post 11-Янв-21 21:15 (спустя 20 дней)

+5

MiGeL123

post 12-Янв-21 01:41 (спустя 4 часа)

5 серия охренено крутая)Понеслась жара)

Ghos7t

post 25-Янв-21 23:07 (спустя 13 дней)

7 серия зачет)

добавлено спустя 51 секунду:

Жаль что 16 серий

Ankiler

post 11-Янв-22 23:32 (спустя 11 месяцев)

11.01.2022 обновлено. Добавлена 17-я серия. В 17 серии 2 дубляжа - StudioBand и DEEP, до 17 серии дубляж только от StudioBand

Текущее время: 16-Янв 13:05

Часовой пояс: GMT + 3



Вы не можете начинать темы
Вы не можете отвечать на сообщения
Вы не можете редактировать свои сообщения
Вы не можете удалять свои сообщения
Вы не можете голосовать в опросах
Вы не можете прикреплять файлы к сообщениям
Вы не можете скачивать файлы