Loading...
Error
 

Скачать торрент (Euro-Disco) Silent Circle - Chapter 80s - 2020 [FLAC, image +.cue, lossless]

 
Автор Сообщение

trygg

post 30-Дек-20 17:31


Silent Circle - Chapter 80s


pic
Год издания: 2020
Страна: Germany pic
Жанр: Euro-Disco
Продолжительность: 00:47:36
Лейбл издания: Maschina Records
Страна-выпуска диска: Russia pic
Номер по каталогу: MASHCD-035
Формат: FLAC
Битрейт аудио: Lossless
Тип рипа: image +.cue
Наличие сканов в содержимом раздачи: да

pic
Трэклист
pic
01. Don't Ask Me Why (3:59)
02. Luxury (3:52)
03. Heaven Waits (3:24)
04. Can You Hear Me (4:52)
05. Paralysed (3:44)
06. Sign Of Love (3:29)
07. You've Broken My Tears (4:00)
08. Drive It Out (3:38)
09. The Sweetest Dreams (3:04)
10. Tell Me Once Again (3:24)
11. Don't Say That We Have To Part (3:27)
12. What A Shame (Unreleased Version) (3:19)
13. Tale Of A Diamond (3:27)


pic
Лог создания рипа

Код:

Exact Audio Copy V1.5 from 20. February 2020

EAC extraction logfile from 28. December 2020, 22:22

Silent Circle / Chapter 80s

Used drive  : PIONEER DVD-RW  DVR-215   Adapter: 1  ID: 0

Read mode               : Secure
Utilize accurate stream : Yes
Defeat audio cache      : Yes
Make use of C2 pointers : No

Read offset correction                      : 48
Overread into Lead-In and Lead-Out          : No
Fill up missing offset samples with silence : Yes
Delete leading and trailing silent blocks   : No
Null samples used in CRC calculations       : Yes
Used interface                              : Native Win32 interface for Win NT & 2000

Used output format              : User Defined Encoder
Selected bitrate                : 1024 kBit/s
Quality                         : High
Add ID3 tag                     : No
Command line compressor         : C:\Program Files\Exact Audio Copy\Flac\flac.exe
Additional command line options : -6 -V -T "ARTIST=%artist%" -T "TITLE=%title%" -T "ALBUM=%albumtitle%" -T "DATE=%year%" -T "TRACKNUMBER=%tracknr%" -T "TOTALTRACKS=%numtracks%" -T "DISCNUMBER=%cdnumber%" -T "TOTALDISCS=%totalcds%" -T "PERFORMER=%albuminterpret%" -T "COMPOSER=%composer%" -T "GENRE=%genre%" -T "ALBUMARTIST=%albumartist%" -T "ALBUM ARTIST=%albumartist%" -T "COMMENT=%comment%" %source%

TOC of the extracted CD

     Track |   Start  |  Length  | Start sector | End sector
    ---------------------------------------------------------
        1  |  0:00.00 |  3:58.22 |         0    |    17871
        2  |  3:58.22 |  3:51.71 |     17872    |    35267
        3  |  7:50.18 |  3:23.74 |     35268    |    50566
        4  | 11:14.17 |  4:52.00 |     50567    |    72466
        5  | 16:06.17 |  3:44.00 |     72467    |    89266
        6  | 19:50.17 |  3:28.14 |     89267    |   104880
        7  | 23:18.31 |  3:59.61 |    104881    |   122866
        8  | 27:18.17 |  3:38.00 |    122867    |   139216
        9  | 30:56.17 |  3:04.00 |    139217    |   153016
       10  | 34:00.17 |  3:24.00 |    153017    |   168316
       11  | 37:24.17 |  3:26.07 |    168317    |   183773
       12  | 40:50.24 |  3:18.48 |    183774    |   198671
       13  | 44:08.72 |  3:26.66 |    198672    |   214187

Range status and errors

Selected range

     Filename H:\Music\Silent Circle - Chapter 80s (2020)\Silent Circle - Chapter 80s.wav

     Peak level 97.3 %
     Extraction speed 6.8 X
     Range quality 99.9 %
     Test CRC CFECD6B3
     Copy CRC CFECD6B3
     Copy OK

No errors occurred

AccurateRip summary

Track  1  accurately ripped (confidence 1)  [3D297D8B]  (AR v2)
Track  2  accurately ripped (confidence 1)  [D9B9E58D]  (AR v2)
Track  3  accurately ripped (confidence 1)  [4BC86F77]  (AR v2)
Track  4  accurately ripped (confidence 1)  [32B41E7A]  (AR v2)
Track  5  accurately ripped (confidence 1)  [C40B67F4]  (AR v2)
Track  6  accurately ripped (confidence 1)  [52EF3D0E]  (AR v2)
Track  7  accurately ripped (confidence 1)  [88F2AC05]  (AR v2)
Track  8  accurately ripped (confidence 1)  [A4E88951]  (AR v2)
Track  9  accurately ripped (confidence 1)  [4C5A26AC]  (AR v2)
Track 10  accurately ripped (confidence 1)  [09F19810]  (AR v2)
Track 11  accurately ripped (confidence 1)  [ABDADF7F]  (AR v2)
Track 12  accurately ripped (confidence 1)  [23ECA79A]  (AR v2)
Track 13  accurately ripped (confidence 1)  [B3A91EE4]  (AR v2)

All tracks accurately ripped

End of status report
Индексная карта (non-compilant .cue)

Код:

REM GENRE Euro-Disco
REM DATE 2020
REM DISCID A20B270D
REM COMMENT "ExactAudioCopy v1.5"
PERFORMER "Silent Circle"
TITLE "Chapter 80s"
REM COMPOSER ""
FILE "Silent Circle - Chapter 80s.flac" WAVE
  TRACK 01 AUDIO
    TITLE "Don't Ask Me Why"
    PERFORMER "Silent Circle"
    REM COMPOSER ""
    INDEX 01 00:00:00
  TRACK 02 AUDIO
    TITLE "Luxury"
    PERFORMER "Silent Circle"
    REM COMPOSER ""
    INDEX 00 03:54:23
    INDEX 01 03:58:22
  TRACK 03 AUDIO
    TITLE " Heaven Waits"
    PERFORMER "Silent Circle"
    REM COMPOSER ""
    INDEX 00 07:44:74
    INDEX 01 07:50:18
  TRACK 04 AUDIO
    TITLE "Can You Hear Me"
    PERFORMER "Silent Circle"
    REM COMPOSER ""
    INDEX 00 11:11:49
    INDEX 01 11:14:17
  TRACK 05 AUDIO
    TITLE "Paralysed"
    PERFORMER "Silent Circle"
    REM COMPOSER ""
    INDEX 00 16:03:15
    INDEX 01 16:06:17
  TRACK 06 AUDIO
    TITLE "Sign Of Love"
    PERFORMER "Silent Circle"
    REM COMPOSER ""
    INDEX 00 19:46:68
    INDEX 01 19:50:17
  TRACK 07 AUDIO
    TITLE "You've Broken My Tears"
    PERFORMER "Silent Circle"
    REM COMPOSER ""
    INDEX 01 23:18:31
  TRACK 08 AUDIO
    TITLE "Drive It Out"
    PERFORMER "Silent Circle"
    REM COMPOSER ""
    INDEX 00 27:14:57
    INDEX 01 27:18:17
  TRACK 09 AUDIO
    TITLE "The Sweetest Dreams"
    PERFORMER "Silent Circle"
    REM COMPOSER ""
    INDEX 00 30:53:49
    INDEX 01 30:56:17
  TRACK 10 AUDIO
    TITLE "Tell Me Once Again"
    PERFORMER "Silent Circle"
    REM COMPOSER ""
    INDEX 00 33:58:09
    INDEX 01 34:00:17
  TRACK 11 AUDIO
    TITLE "Don't Say That We Have To Part"
    PERFORMER "Silent Circle"
    REM COMPOSER ""
    INDEX 00 37:21:65
    INDEX 01 37:24:17
  TRACK 12 AUDIO
    TITLE "What A Shame (Unreleased Version)"
    PERFORMER "Silent Circle"
    REM COMPOSER ""
    INDEX 00 40:49:03
    INDEX 01 40:50:24
  TRACK 13 AUDIO
    TITLE "Tale Of A Diamond"
    PERFORMER "Silent Circle"
    REM COMPOSER ""
    INDEX 00 44:08:32
    INDEX 01 44:08:72
pic
для ознакомления:


pic
pic



Silent Circle - Chapter 80s (2020).torrent
Трекер: Зарегистрирован

magnet ссылка

 


Скачать .torrent

17 KB

Статус: проверено (by E IL o T IR i X в 31-Дек-20 00:35)
Зарегистрирован: 30-Дек-20 17:31
Скачан: 9 раз
Размер: 387 MB | 
Поблагодарили:
Скачать (Euro-Disco) Silent Circle - Chapter 80s - 2020 [FLAC, image +.cue, lossless] торрент
 


Похожие раздачи

Текущее время: 09-Мар 08:03

Часовой пояс: GMT + 3



Вы не можете начинать темы
Вы не можете отвечать на сообщения
Вы не можете редактировать свои сообщения
Вы не можете удалять свои сообщения
Вы не можете голосовать в опросах
Вы не можете прикреплять файлы к сообщениям
Вы не можете скачивать файлы