Loading...
Error
 

Скачать торрент (Score) Ecco: Songs of Time - 1996, [CD] [FLAC, tracks+.cue, lossless]

 
Автор Сообщение

Myster_Ya

post 13-Янв-21 04:15

pic
Ecco: Songs of Time

Жанр: Score
Композитор: Spencer Nilsen
Год выпуска диска: 1996
Издатель (лейбл): Sega Music Group
Номер по каталогу: 697-124-126-2
Аудио кодек: FLAC (*.flac)
Тип рипа: tracks+.cue
Битрейт аудио: lossless
Продолжительность: 01:04:22
Наличие сканов в содержимом раздачи: да
Треклист
01. abyss [4:43]
02. botswana [3:17]
03. the desert below [2:42]
04. deception [2:05]
05. deep marjimba [3:14]
06. blue dream [3:26]
07. st. gabriel's mask [4:32]
08. heart of the giant [2:40]
09. transcended [3:21]
10. mountains below [3:37]
11. treefish [3:40]
12. aqua vistas [4:24]
13. lonesome search [1:49]
14. friend or foe [6:06]
15. motion e [4:08]
16. the machine [3:26]
17. sounding echo [3:11]
18. time forgotten [4:01]
Лог создания рипа

Код:

Exact Audio Copy V0.99 prebeta 4 from 23. January 2008

EAC extraction logfile from 27. March 2009, 23:01

Spencer Nilsen / Ecco: Songs of Time

Used drive  : Optiarc DVD RW AD-7200S   Adapter: 3  ID: 0

Read mode               : Secure
Utilize accurate stream : Yes
Defeat audio cache      : Yes
Make use of C2 pointers : No

Read offset correction                      : 48
Overread into Lead-In and Lead-Out          : No
Fill up missing offset samples with silence : Yes
Delete leading and trailing silent blocks   : No
Null samples used in CRC calculations       : Yes
Used interface                              : Installed external ASPI interface
Gap handling                                : Appended to previous track

Used output format              : User Defined Encoder
Selected bitrate                : 128 kBit/s
Quality                         : High
Add ID3 tag                     : No
Command line compressor         : G:\Program Files\FLAC\flac.exe
Additional command line options :  -8 -V -T "ARTIST=%a" -T "TITLE=%t" -T "ALBUM=%g" -T "DATE=%y" -T "TRACKNUMBER=%n" -T "GENRE=%m" -T "COMMENT=EAC FLAC -8" %s

TOC of the extracted CD

     Track |   Start  |  Length  | Start sector | End sector
    ---------------------------------------------------------
        1  |  0:00.00 |  4:43.35 |         0    |    21259
        2  |  4:43.35 |  3:16.53 |     21260    |    36012
        3  |  8:00.13 |  2:42.30 |     36013    |    48192
        4  | 10:42.43 |  2:05.16 |     48193    |    57583
        5  | 12:47.59 |  3:13.38 |     57584    |    72096
        6  | 16:01.22 |  3:26.06 |     72097    |    87552
        7  | 19:27.28 |  4:32.06 |     87553    |   107958
        8  | 23:59.34 |  2:40.00 |    107959    |   119958
        9  | 26:39.34 |  3:20.65 |    119959    |   135023
       10  | 30:00.24 |  3:37.00 |    135024    |   151298
       11  | 33:37.24 |  3:39.49 |    151299    |   167772
       12  | 37:16.73 |  4:24.27 |    167773    |   187599
       13  | 41:41.25 |  1:49.08 |    187600    |   195782
       14  | 43:30.33 |  6:06.28 |    195783    |   223260
       15  | 49:36.61 |  4:08.14 |    223261    |   241874
       16  | 53:45.00 |  3:25.48 |    241875    |   257297
       17  | 57:10.48 |  3:11.22 |    257298    |   271644
       18  | 60:21.70 |  4:01.08 |    271645    |   289727

Track  1

     Filename J:\Ecco - Songs of Time\01 Abyss.wav

     Pre-gap length  0:00:02.00

     Peak level 99.9 %
     Track quality 100.0 %
     Test CRC 7CC712E6
     Copy CRC 7CC712E6
     Track not present in AccurateRip database
     Copy OK

Track  2

     Filename J:\Ecco - Songs of Time\02 Botswana.wav

     Peak level 99.9 %
     Track quality 100.0 %
     Test CRC 627FA07B
     Copy CRC 627FA07B
     Track not present in AccurateRip database
     Copy OK

Track  3

     Filename J:\Ecco - Songs of Time\03 The Desert Below.wav

     Peak level 99.9 %
     Track quality 100.0 %
     Test CRC B497DA7B
     Copy CRC B497DA7B
     Track not present in AccurateRip database
     Copy OK

Track  4

     Filename J:\Ecco - Songs of Time\04 Deception.wav

     Peak level 99.9 %
     Track quality 99.9 %
     Test CRC 5C6620FD
     Copy CRC 5C6620FD
     Track not present in AccurateRip database
     Copy OK

Track  5

     Filename J:\Ecco - Songs of Time\05 Deep Marjimba.wav

     Peak level 99.9 %
     Track quality 100.0 %
     Test CRC BC0F7961
     Copy CRC BC0F7961
     Track not present in AccurateRip database
     Copy OK

Track  6

     Filename J:\Ecco - Songs of Time\06 Blue Dream.wav

     Peak level 99.9 %
     Track quality 100.0 %
     Test CRC E5EFFD42
     Copy CRC E5EFFD42
     Track not present in AccurateRip database
     Copy OK

Track  7

     Filename J:\Ecco - Songs of Time\07 St. Gabriel's Mask.wav

     Peak level 99.9 %
     Track quality 100.0 %
     Test CRC C483966E
     Copy CRC C483966E
     Track not present in AccurateRip database
     Copy OK

Track  8

     Filename J:\Ecco - Songs of Time\08 Heart of the Giant.wav

     Peak level 99.9 %
     Track quality 100.0 %
     Test CRC E64A15AF
     Copy CRC E64A15AF
     Track not present in AccurateRip database
     Copy OK

Track  9

     Filename J:\Ecco - Songs of Time\09 Transcended.wav

     Peak level 100.0 %
     Track quality 100.0 %
     Test CRC 4C19951E
     Copy CRC 4C19951E
     Track not present in AccurateRip database
     Copy OK

Track 10

     Filename J:\Ecco - Songs of Time\10 Mountains Below.wav

     Peak level 99.9 %
     Track quality 100.0 %
     Test CRC 2E73A3FF
     Copy CRC 2E73A3FF
     Track not present in AccurateRip database
     Copy OK

Track 11

     Filename J:\Ecco - Songs of Time\11 Treefish.wav

     Peak level 99.9 %
     Track quality 100.0 %
     Test CRC DFAA78EE
     Copy CRC DFAA78EE
     Track not present in AccurateRip database
     Copy OK

Track 12

     Filename J:\Ecco - Songs of Time\12 Aqua Vistas.wav

     Peak level 100.0 %
     Track quality 100.0 %
     Test CRC EA151F96
     Copy CRC EA151F96
     Track not present in AccurateRip database
     Copy OK

Track 13

     Filename J:\Ecco - Songs of Time\13 Lonesome Search.wav

     Peak level 99.9 %
     Track quality 100.0 %
     Test CRC DE6EB93B
     Copy CRC DE6EB93B
     Track not present in AccurateRip database
     Copy OK

Track 14

     Filename J:\Ecco - Songs of Time\14 Friend or Foe.wav

     Peak level 99.9 %
     Track quality 100.0 %
     Test CRC 3F62DFCC
     Copy CRC 3F62DFCC
     Track not present in AccurateRip database
     Copy OK

Track 15

     Filename J:\Ecco - Songs of Time\15 Motion E.wav

     Peak level 99.9 %
     Track quality 100.0 %
     Test CRC 2E41D86E
     Copy CRC 2E41D86E
     Track not present in AccurateRip database
     Copy OK

Track 16

     Filename J:\Ecco - Songs of Time\16 The Machine.wav

     Peak level 99.9 %
     Track quality 100.0 %
     Test CRC 94C99BF3
     Copy CRC 94C99BF3
     Track not present in AccurateRip database
     Copy OK

Track 17

     Filename J:\Ecco - Songs of Time\17 Sounding Echo.wav

     Peak level 100.0 %
     Track quality 100.0 %
     Test CRC 2021B787
     Copy CRC 2021B787
     Track not present in AccurateRip database
     Copy OK

Track 18

     Filename J:\Ecco - Songs of Time\18 Time Forgotten.wav

     Peak level 100.0 %
     Track quality 99.9 %
     Test CRC 2F8B3427
     Copy CRC 2F8B3427
     Track not present in AccurateRip database
     Copy OK

None of the tracks are present in the AccurateRip database

No errors occurred

End of status report

Содержание индексной карты (.CUE)

Код:

REM GENRE Game
REM DATE 1996
REM DISCID F50F1712
REM COMMENT "ExactAudioCopy v0.99pb4"
PERFORMER "Spencer Nilsen"
TITLE "Ecco: Songs of Time"
FILE "01 Abyss.wav" WAVE
  TRACK 01 AUDIO
    TITLE "Abyss"
    PERFORMER "Spencer Nilsen"
    FLAGS DCP
    INDEX 01 00:00:00
FILE "02 Botswana.wav" WAVE
  TRACK 02 AUDIO
    TITLE "Botswana"
    PERFORMER "Spencer Nilsen"
    FLAGS DCP
    INDEX 01 00:00:00
FILE "03 The Desert Below.wav" WAVE
  TRACK 03 AUDIO
    TITLE "The Desert Below"
    PERFORMER "Spencer Nilsen"
    FLAGS DCP
    INDEX 01 00:00:00
FILE "04 Deception.wav" WAVE
  TRACK 04 AUDIO
    TITLE "Deception"
    PERFORMER "Spencer Nilsen"
    FLAGS DCP
    INDEX 01 00:00:00
FILE "05 Deep Marjimba.wav" WAVE
  TRACK 05 AUDIO
    TITLE "Deep Marjimba"
    PERFORMER "Spencer Nilsen"
    FLAGS DCP
    INDEX 01 00:00:00
FILE "06 Blue Dream.wav" WAVE
  TRACK 06 AUDIO
    TITLE "Blue Dream"
    PERFORMER "Spencer Nilsen"
    FLAGS DCP
    INDEX 01 00:00:00
FILE "07 St. Gabriel's Mask.wav" WAVE
  TRACK 07 AUDIO
    TITLE "St. Gabriel's Mask"
    PERFORMER "Spencer Nilsen"
    FLAGS DCP
    INDEX 01 00:00:00
FILE "08 Heart of the Giant.wav" WAVE
  TRACK 08 AUDIO
    TITLE "Heart of the Giant"
    PERFORMER "Spencer Nilsen"
    FLAGS DCP
    INDEX 01 00:00:00
FILE "09 Transcended.wav" WAVE
  TRACK 09 AUDIO
    TITLE "Transcended"
    PERFORMER "Spencer Nilsen"
    FLAGS DCP
    INDEX 01 00:00:00
FILE "10 Mountains Below.wav" WAVE
  TRACK 10 AUDIO
    TITLE "Mountains Below"
    PERFORMER "Spencer Nilsen"
    FLAGS DCP
    INDEX 01 00:00:00
FILE "11 Treefish.wav" WAVE
  TRACK 11 AUDIO
    TITLE "Treefish"
    PERFORMER "Spencer Nilsen"
    FLAGS DCP
    INDEX 01 00:00:00
FILE "12 Aqua Vistas.wav" WAVE
  TRACK 12 AUDIO
    TITLE "Aqua Vistas"
    PERFORMER "Spencer Nilsen"
    FLAGS DCP
    INDEX 01 00:00:00
FILE "13 Lonesome Search.wav" WAVE
  TRACK 13 AUDIO
    TITLE "Lonesome Search"
    PERFORMER "Spencer Nilsen"
    FLAGS DCP
    INDEX 01 00:00:00
FILE "14 Friend or Foe.wav" WAVE
  TRACK 14 AUDIO
    TITLE "Friend or Foe"
    PERFORMER "Spencer Nilsen"
    FLAGS DCP
    INDEX 01 00:00:00
FILE "15 Motion E.wav" WAVE
  TRACK 15 AUDIO
    TITLE "Motion E"
    PERFORMER "Spencer Nilsen"
    FLAGS DCP
    INDEX 01 00:00:00
FILE "16 The Machine.wav" WAVE
  TRACK 16 AUDIO
    TITLE "The Machine"
    PERFORMER "Spencer Nilsen"
    FLAGS DCP
    INDEX 01 00:00:00
FILE "17 Sounding Echo.wav" WAVE
  TRACK 17 AUDIO
    TITLE "Sounding Echo"
    PERFORMER "Spencer Nilsen"
    FLAGS DCP
    INDEX 01 00:00:00
FILE "18 Time Forgotten.wav" WAVE
  TRACK 18 AUDIO
    TITLE "Time Forgotten"
    PERFORMER "Spencer Nilsen"
    FLAGS DCP
    INDEX 01 00:00:00

Ecco: Songs of Time



Ecco - Songs of Time - 1996 - Spencer Nilsen.torrent
Трекер: Зарегистрирован

magnet ссылка

 


Скачать .torrent

17 KB

Статус: проверено (by Snowden в 13-Янв-21 07:04)
Зарегистрирован: 13-Янв-21 04:15
Скачан: 8 раз
Размер: 397 MB | 
Поблагодарили:
Скачать (Score) Ecco: Songs of Time - 1996, [CD] [FLAC, tracks+.cue, lossless] торрент
 


Похожие раздачи

Текущее время: 17-Янв 13:07

Часовой пояс: GMT + 3



Вы не можете начинать темы
Вы не можете отвечать на сообщения
Вы не можете редактировать свои сообщения
Вы не можете удалять свои сообщения
Вы не можете голосовать в опросах
Вы не можете прикреплять файлы к сообщениям
Вы не можете скачивать файлы