Loading...
Error
 

Скачать торрент (JRock) RADWIMPS - 2+0+2+1+3+1+1= 10 years 10 songs - 2021, [TR24] [OF] [FLAC, tracks, lossless]

 
Автор Сообщение

Myster_Ya

post 19-Мар-21 14:08

pic
RADWIMPS - 2+0+2+1+3+1+1= 10 years 10 songs

Формат записи/Источник записи: [TR24][OF]
Наличие водяных знаков: Нет
Год издания/переиздания диска: 2021.03.11
Жанр: JRock
Издатель (лейбл): Universal Music LLC
Продолжительность: 00:48:53
Контейнер: FLAC (*.flac)
Тип рипа: tracks
Разрядность: 24/48
Формат: PCM
Количество каналов: 2.0
Источник (релизер): mora.jp
Треклист:
01. 白日 -10 years ver.- [04:28]
02. ブリキ [05:16]
03. カイコ [06:03]
04. あいとわ [05:31]
05. 春灯 [04:46]
06. 空窓 [04:14]
07. 夜の淵 [04:01
08. 世界の果て [03:12]
09. かくれんぼ [06:16]
10. あいたい [05:10]
あいたい RADWIMPS
Замер динамического диапазона (DR)

Код:

foobar2000 1.6.2 / Замер динамического диапазона (DR) 1.1.1
Дата отчёта:    2021-03-19 12:50:14

--------------------------------------------------------------------------------
Анализ:   RADWIMPS / 2+0+2+1+3+1+1= 10 years 10 songs
--------------------------------------------------------------------------------

DR         Пики         RMS           Продолжительность трека
--------------------------------------------------------------------------------
DR6       -0.10 дБ    -8.73 дБ      4:28 01-白日 (10 years ver.)
DR5       -0.10 дБ    -6.80 дБ      5:16 02-ブリキ
DR7       -0.10 дБ    -9.54 дБ      6:02 03-カイコ
DR7       -0.10 дБ   -11.05 дБ      5:30 04-あいとわ
DR9       -0.03 дБ   -12.99 дБ      4:46 05-春灯
DR7       -0.10 дБ    -9.91 дБ      4:13 06-空窓
DR7       -0.10 дБ   -10.73 дБ      4:01 07-夜の淵
DR5       -0.10 дБ    -6.65 дБ      3:11 08-世界の果て
DR7       -0.10 дБ    -9.78 дБ      6:15 09-かくれんぼ
DR6       -0.10 дБ   -11.33 дБ      5:09 10-あいたい
--------------------------------------------------------------------------------

Количество треков:  10
Реальные значения DR:  DR7

Частота:      48000 Гц
Каналов:      2
Разрядность:     24
Битрейт:      1658 кбит/с
Кодек:      FLAC
================================================================================

RADWIMPS - 2+0+2+1+3+1+1= 10 years 10 songs (2021) (24-48) (FLAC).torrent
Трекер: Зарегистрирован

magnet ссылка

 


Скачать .torrent

13 KB

Статус: проверено (by Snowden в 19-Мар-21 15:35)
Зарегистрирован: 19-Мар-21 14:08
Скачан: 1 раз
Размер: 602 MB | 
Поблагодарили:
Скачать (JRock) RADWIMPS - 2+0+2+1+3+1+1= 10 years 10 songs - 2021, [TR24] [OF] [FLAC, tracks, lossless] торрент
 


Похожие раздачи

Текущее время: 25-Сен 20:56

Часовой пояс: GMT + 3



Вы не можете начинать темы
Вы не можете отвечать на сообщения
Вы не можете редактировать свои сообщения
Вы не можете удалять свои сообщения
Вы не можете голосовать в опросах
Вы не можете прикреплять файлы к сообщениям
Вы не можете скачивать файлы