Loading...
Error
 

Скачать торрент Ария - Живой огонёк [2022, heavy metal, WEBRip 1080p]

 
Автор Сообщение

HardwareMining

post 04-Янв-22 16:01

Ария - Живой огонёк

pic

Год выпуска: 2022
Страна: Россия
Жанр: Heavy Metal
Продолжительность: 01:58:48
Описание:
Приглашаем всех отметить Новый 2022 Год вместе с нами! Нетленные хиты, необычные каверы и песни, исполненные впервые! Всё это – ЖИВОЙ ОГОНЁК от группы АРИЯ! Только раз в году, в Новый Год, музыканты “АРИИ” позволяют себе облачаться в костюмы Дедов Морозов, облекать в тяжелые рифы советские шлягеры и петь невиданные песни из сольных проектов участников группы.
Качество: WEBRip 1080
Формат: MKV
Видео кодек: AVC
Аудио кодек: AC3
Видео: AVC | 1920x1080 (16:9) | 25 fps | 3672 Кбит/сек | 0.071 bpp
Аудио: AC3 | 192 kb/s | 2ch | 48 kHz
Доп. информация
Концерт скачан с YouTube. Перекодировал с MP4 в MKV и заменил аудио-дорожку на AC3
MediaInfo

Код:

Общее
Уникальный идентификатор                 : 235430827675970110003644791756993132529 (0xB11E53FD65FB41AA9682B104EE98F7F1)
Полное имя                               : G:\Torrent\Раздачи\Ariya - Zhivoy ogonok - 2022.mkv
Формат                                   : Matroska
Версия формата                           : Version 4
Размер файла                             : 3,27 Гбайт
Продолжительность                        : 1 ч. 58 м.
Общий поток                              : 3 942 Кбит/сек
Дата кодирования                         : UTC 2022-01-04 12:41:48
Программа кодирования                    : mkvmerge v6.8.0 ('Theme for Great Cities') 64bit built on Mar  2 2014 21:34:26
Библиотека кодирования                   : libebml v1.3.0 + libmatroska v1.4.1

Видео
Идентификатор                            : 1
Формат                                   : AVC
Формат/Информация                        : Advanced Video Codec
Профиль формата                          : [email protected]
Настройки формата                        : CABAC / 3 Ref Frames
Параметр CABAC формата                   : Да
Параметр RefFrames формата               : 3 кадра
Идентификатор кодека                     : V_MPEG4/ISO/AVC
Продолжительность                        : 1 ч. 58 м.
Битрейт                                  : 3 672 Кбит/сек
Ширина                                   : 1 920 пикселей
Высота                                   : 1 080 пикселей
Соотношение сторон                       : 16:9
Режим частоты кадров                     : Постоянный
Частота кадров                           : 25,000 кадров/сек
Цветовое пространство                    : YUV
Субдискретизация насыщенности            : 4:2:0
Битовая глубина                          : 8 бит
Тип развёртки                            : Прогрессивная
Бит/(Пиксели*Кадры)                      : 0.071
Размер потока                            : 3,05 Гбайт (93%)
Библиотека кодирования                   : x264 core 155 r2901 7d0ff22
Default                                  : Да
Forced                                   : Нет
Цветовой диапазон                        : Limited
Основные цвета                           : BT.709
Характеристики трансфера                 : BT.709
Коэффициенты матрицы                     : BT.709

Аудио
Идентификатор                            : 2
Формат                                   : AC-3
Формат/Информация                        : Audio Coding 3
Коммерческое название                    : Dolby Digital
Идентификатор кодека                     : A_AC3
Продолжительность                        : 1 ч. 58 м.
Вид битрейта                             : Постоянный
Битрейт                                  : 192 Кбит/сек
Каналы                                   : 2 канала
Channel layout                           : L R
Частота                                  : 48,0 КГц
Частота кадров                           : 31,250 кадров/сек (1536 SPF)
Метод сжатия                             : С потерями
Размер потока                            : 163 Мбайт (5%)
Язык                                     : Russian
Service kind                             : Complete Main
Default                                  : Да
Forced                                   : Нет
Треклист
Breaking the law (Judas Priest cover)
Раскачаем этот мир
Мини-интервью про 2021 год
Губит людей не пиво (Вячеслав Невинный cover)
Отшельник
Про зайцев (Юрий Никулин cover)
Поздравление от Маргариты Пушкиной
Кто ты? (Михаил Житняков и Сергей Терентьев)
Поздравление от Александра Елина
Вулкан (feat. Михаил Бугаев)
Поздравительная на мотив "Тореро" (Евгений Ткаченко и Михаил Закиров)
Поздравление от Сергея Маврина с 2002м годом
Герой асфальта
Там высоко (feat. Артур и Оксана Беркуты)
Angel (Judas Priest cover, вокал Виталий Дубинин)
Caravan (Duke Ellington drum cover, Максим Удалов)
На службе силы зла (feat. Ария Crew)
Здесь куют металл (feat. шоу-балет под руководством Юрия Соколова)
Постой, паровоз! (Народная, вокал Виталий Дубинин, Михаил Житняков, Максим Удалов)
Осколок льда (акустика)
Тореро (акустика)
Беспечный ангел (Golden Earring cover)
Поздравление от Ульфа Ваденбрандта
Улица Роз (feat. Жорик)
В лесу родилась ёлочка
Скриншоты

Ariya - Zhivoy ogonok - 2022.mkv.torrent
Трекер: Зарегистрирован

magnet ссылка

 


Скачать .torrent

17 KB

Статус: проверено (by E IL o T IR i X в 04-Янв-22 16:40)
Зарегистрирован: 04-Янв-22 16:03
Скачан: 30 раз
Размер: 3.27 GB | 
Поблагодарили:
Скачать Ария - Живой огонёк [2022, heavy metal, WEBRip 1080p] торрент
 


Похожие раздачи

Текущее время: 16-Янв 12:50

Часовой пояс: GMT + 3



Вы не можете начинать темы
Вы не можете отвечать на сообщения
Вы не можете редактировать свои сообщения
Вы не можете удалять свои сообщения
Вы не можете голосовать в опросах
Вы не можете прикреплять файлы к сообщениям
Вы не можете скачивать файлы